File Size222.3 MB (233,148,979 bytes)
DownloadAnonFiles | ClickNUpload | DropAPK | Free | MultiUp
  • BdUpload
  • DownAce
  • Fichier
  • FileCloud
  • Filerio
  • FilesCdn
  • IndiShare
  • Kbagi
  • Turbobit
  • UpToBox
  • Uppit
| SolidFiles | ZippyShare
HashesCRC32: 9732A856, MD5: 692BC0CD991D1FB1932F647F3FC05FA5, SHA1: 92D88D5BA60F9D35673E82B540A6757230902E2D, SHA256: 246BEEFE89FC980E7A7A6BE69C22FF7CC5DF7CEF3373B70718EC24C7315A591E, ED2K: 12EEC552289C89895C441BD3BF4103F8
Screenshots
screenshotscreenshotscreenshotscreenshotscreenshot
SubtitlesAll Attachments | eng [ASS], Honorifics [enm, ASS]
Additional Info
General
Unique ID                                : 308501533889342347627547944923373754346 (0xE8173BF49386D4518981B1B8ECF7D7EA)
Complete name                            : Made in Abyss - 05 [1920x1080].mkv
Format                                   : Matroska
Format version                           : Version 4
File size                                : 222 MiB
Duration                                 : 23 min 42 s
Overall bit rate                         : 1 312 kb/s
Writing application                      : Lavf58.45.100
Writing library                          : Lavf58.45.100
ErrorDetectionType                       : Per level 1
Attachments                              : CronosPro-Semibold.ttf / CronosPro-SemiboldIt.ttf / DFGYOSHO-LT-WING-RKSJ-H.TTF / DRIPDROP.TTF / KGShadowOfTheDay.ttf / playtime.ttf / saru(sRB).TTF

Video
ID                                       : 1
Format                                   : AV1
Format/Info                              : AOMedia Video 1
Codec ID                                 : V_AV1
Duration                                 : 23 min 42 s
Width                                    : 1 920 pixels
Height                                   : 1 080 pixels
Display aspect ratio                     : 16:9
Frame rate mode                          : Constant
Frame rate                               : 23.976 (24000/1001) FPS
Default                                  : Yes
Forced                                   : No
Color range                              : Limited

Audio
ID                                       : 2
Format                                   : Opus
Codec ID                                 : A_OPUS
Duration                                 : 23 min 42 s
Channel(s)                               : 2 channels
Channel layout                           : L R
Sampling rate                            : 48.0 kHz
Bit depth                                : 32 bits
Compression mode                         : Lossy
Delay relative to video                  : -7 ms
Writing library                          : Lavc58.91.100 libopus
Default                                  : Yes
Forced                                   : No

Text #1
ID                                       : 3
Format                                   : ASS
Codec ID                                 : S_TEXT/ASS
Codec ID/Info                            : Advanced Sub Station Alpha
Duration                                 : 23 min 40 s
Bit rate                                 : 447 b/s
Count of elements                        : 374
Compression mode                         : Lossless
Stream size                              : 76.3 KiB (0%)
Language                                 : English
Default                                  : Yes
Forced                                   : No

Text #2
ID                                       : 4
Format                                   : ASS
Codec ID                                 : S_TEXT/ASS
Codec ID/Info                            : Advanced Sub Station Alpha
Duration                                 : 23 min 40 s
Bit rate                                 : 447 b/s
Count of elements                        : 374
Compression mode                         : Lossless
Stream size                              : 76.4 KiB (0%)
Title                                    : Honorifics
Language                                 : enm
Default                                  : No
Forced                                   : No

Menu
00:00:00.833                             : :Intro
00:04:07.230                             : :OP
00:05:36.780                             : :Part A
00:11:01.770                             : :Part B
00:22:00.760                             : :ED
00:23:30.770                             : :Preview

Other Files in this Torrent
Made in Abyss - 05 [1920x1080].mkv
beta
Anime DDL+NZB mirror
Current Time: 14/06/2024 08:21



About/FAQs

Discord