File Size193.3 MB (202,700,787 bytes)
DownloadAnonFiles | ClickNUpload | DropAPK | Free | MultiUp
  • BdUpload
  • DownAce
  • Fichier
  • FileCloud
  • Filerio
  • FilesCdn
  • IndiShare
  • Kbagi
  • Turbobit
  • UpToBox
  • Uppit
| SolidFiles | ZippyShare
HashesCRC32: 60D74DF3, MD5: 2913B808CB2013589F098F18EBCCE6A5, SHA1: 3BBEDABDA9E70AA7FAACDF6849A6EA3FF310FFFA, SHA256: 4E63FCBFF09EABCB86CE4A4D51DF1333543531F0F9C96B57815C85431532DBB8, ED2K: 4EA7EABCE86EA2A9A07EC0B60B6309A9
Screenshots
screenshotscreenshotscreenshotscreenshotscreenshot
SubtitlesAll Attachments | eng [ASS], Honorifics [enm, ASS]
Additional Info
General
Unique ID                                : 298947700318880218265706491878141812729 (0xE0E73B97CBF24924A20E48BD341B5FF9)
Complete name                            : Made in Abyss - 11 [1920x1080].mkv
Format                                   : Matroska
Format version                           : Version 4
File size                                : 193 MiB
Duration                                 : 23 min 41 s
Overall bit rate                         : 1 140 kb/s
Writing application                      : Lavf58.45.100
Writing library                          : Lavf58.45.100
ErrorDetectionType                       : Per level 1
Attachments                              : CRONOSPRO-SEMIBOLD.TTF / CRONOSPRO-SEMIBOLDIT.TTF / DRIPDROP.TTF / KGSHADOWOFTHEDAY.TTF / PLAYTIMEWITHHOTTODDIES.TTF / SARUSRB.TTF

Video
ID                                       : 1
Format                                   : AV1
Format/Info                              : AOMedia Video 1
Codec ID                                 : V_AV1
Duration                                 : 23 min 41 s
Width                                    : 1 920 pixels
Height                                   : 1 080 pixels
Display aspect ratio                     : 16:9
Frame rate mode                          : Constant
Frame rate                               : 23.976 (24000/1001) FPS
Default                                  : Yes
Forced                                   : No
Color range                              : Limited

Audio
ID                                       : 2
Format                                   : Opus
Codec ID                                 : A_OPUS
Duration                                 : 23 min 41 s
Channel(s)                               : 2 channels
Channel layout                           : L R
Sampling rate                            : 48.0 kHz
Bit depth                                : 32 bits
Compression mode                         : Lossy
Delay relative to video                  : -7 ms
Writing library                          : Lavc58.91.100 libopus
Default                                  : Yes
Forced                                   : No

Text #1
ID                                       : 3
Format                                   : ASS
Codec ID                                 : S_TEXT/ASS
Codec ID/Info                            : Advanced Sub Station Alpha
Duration                                 : 23 min 40 s
Bit rate                                 : 451 b/s
Count of elements                        : 389
Compression mode                         : Lossless
Stream size                              : 78.1 KiB (0%)
Language                                 : English
Default                                  : Yes
Forced                                   : No

Text #2
ID                                       : 4
Format                                   : ASS
Codec ID                                 : S_TEXT/ASS
Codec ID/Info                            : Advanced Sub Station Alpha
Duration                                 : 23 min 40 s
Bit rate                                 : 451 b/s
Count of elements                        : 389
Compression mode                         : Lossless
Stream size                              : 78.1 KiB (0%)
Title                                    : Honorifics
Language                                 : enm
Default                                  : No
Forced                                   : No

Menu
00:00:00.833                             : :Intro
00:03:33.950                             : :OP
00:05:03.660                             : :Part A
00:13:38.720                             : :Part B
00:22:00.690                             : :ED
00:23:30.680                             : :Preview

Other Files in this Torrent
Made in Abyss - 11 [1920x1080].mkv
beta
Anime DDL+NZB mirror
Current Time: 14/06/2024 10:12



About/FAQs

Discord