File Size179.5 MB (188,251,812 bytes)
DownloadAnonFiles | ClickNUpload | DropAPK | Free | MultiUp
  • BdUpload
  • DownAce
  • Fichier
  • FileCloud
  • Filerio
  • FilesCdn
  • IndiShare
  • Kbagi
  • Turbobit
  • UpToBox
  • Uppit
| SolidFiles | ZippyShare
HashesCRC32: 6E33E7B6, MD5: 1C18E9F21B55FE2D0E3A53ECC4B3E1FF, SHA1: 215368445EA0DB6CAE963394C17042A9B0B52D09, SHA256: BDCEFFC959EB32504DD8D56BC2B6D97BDBAA812E70F6DD290E0DE8E929C6F7D0, ED2K: 0C3A6491188A00E540EF2DF20C0BFF0B
Screenshots
screenshotscreenshotscreenshotscreenshotscreenshot
SubtitlesAll Attachments | eng [ASS], Honorifics [enm, ASS]
Additional Info
General
Unique ID                                : 10738768785341041141836472647295095072 (0x814362DD6E3BC4163A3D093950ED120)
Complete name                            : Made in Abyss - 01 [1920x1080].mkv
Format                                   : Matroska
Format version                           : Version 4
File size                                : 180 MiB
Duration                                 : 23 min 41 s
Overall bit rate                         : 1 059 kb/s
Writing application                      : Lavf58.45.100
Writing library                          : Lavf58.45.100
ErrorDetectionType                       : Per level 1
Attachments                              : CronosPro-Semibold.ttf / CronosPro-SemiboldIt.ttf / playtime.ttf / saru(sRB).TTF

Video
ID                                       : 1
Format                                   : AV1
Format/Info                              : AOMedia Video 1
Codec ID                                 : V_AV1
Duration                                 : 23 min 41 s
Width                                    : 1 920 pixels
Height                                   : 1 080 pixels
Display aspect ratio                     : 16:9
Frame rate mode                          : Constant
Frame rate                               : 23.976 (24000/1001) FPS
Default                                  : Yes
Forced                                   : No
Color range                              : Limited

Audio
ID                                       : 2
Format                                   : Opus
Codec ID                                 : A_OPUS
Duration                                 : 23 min 41 s
Channel(s)                               : 2 channels
Channel layout                           : L R
Sampling rate                            : 48.0 kHz
Bit depth                                : 32 bits
Compression mode                         : Lossy
Delay relative to video                  : -7 ms
Writing library                          : Lavc58.91.100 libopus
Default                                  : Yes
Forced                                   : No

Text #1
ID                                       : 3
Format                                   : ASS
Codec ID                                 : S_TEXT/ASS
Codec ID/Info                            : Advanced Sub Station Alpha
Duration                                 : 23 min 40 s
Bit rate                                 : 126 b/s
Count of elements                        : 353
Compression mode                         : Lossless
Stream size                              : 21.8 KiB (0%)
Language                                 : English
Default                                  : Yes
Forced                                   : No

Text #2
ID                                       : 4
Format                                   : ASS
Codec ID                                 : S_TEXT/ASS
Codec ID/Info                            : Advanced Sub Station Alpha
Duration                                 : 23 min 40 s
Bit rate                                 : 126 b/s
Count of elements                        : 353
Compression mode                         : Lossless
Stream size                              : 21.8 KiB (0%)
Title                                    : Honorifics
Language                                 : enm
Default                                  : No
Forced                                   : No

Menu
00:00:00.800                             : :Prologue
00:08:18.756                             : :Part A
00:13:29.775                             : :Part B
00:22:00.827                             : :ED
00:23:30.750                             : :Preview

Other Files in this Torrent
Made in Abyss - 01 [1920x1080].mkv
beta
Anime DDL+NZB mirror
Current Time: 14/06/2024 08:52



About/FAQs

Discord