[Dark] Eromanga-sensei - OVA01 - Elf Yamada's Love Song.mkv


File Size174.1 MB (182,544,046 bytes)
DownloadAnonFiles | ClickNUpload | DropAPK | Free | MultiUp
  • BdUpload
  • DownAce
  • Fichier
  • FileCloud
  • Filerio
  • FilesCdn
  • IndiShare
  • Kbagi
  • Turbobit
  • UpToBox
  • Uppit
| SolidFiles | ZippyShare
HashesCRC32: DA711CEA, MD5: 0C6210C32ACB0C9C4268B8BF44DF96C2, SHA1: 8B4207D51D2E00A594A306E9764D38081110C9F3, SHA256: FA569E8FC1C4171CAFC8949A186E0C5EE11FCEE71092FD3B46F28E37976D4077, ED2K: 39095DAC8FF3104A2FEBAE52E82DEFF2
Screenshots
screenshotscreenshotscreenshotscreenshotscreenshot
SubtitlesAll Attachments | HAS [eng, ASS]
Additional Info
General
Unique ID                                : 309239390983682386908099160747729544673 (0xE8A5571E6C0F9EC4CFF81E2D5E04E5E1)
Complete name                            : [Dark] Eromanga-sensei - OVA01 - Elf Yamada's Love Song.mkv
Format                                   : Matroska
Format version                           : Version 4
File size                                : 174 MiB
Duration                                 : 23 min 41 s
Overall bit rate                         : 1 028 kb/s
Movie name                               : [Dark] Eromanga-sensei - OVA01: Elf Yamada's Love Song
Encoded date                             : UTC 2021-03-26 11:50:24
Writing application                      : mkvmerge v54.0.0 ('F Maj Pixie') 64-bit
Writing library                          : libebml v1.4.2 + libmatroska v1.6.3
Attachments                              : LuxiSubSans-BoldItalic.ttf / PoetsenOne-Regular.ttf / PoetsenOne-Regular_0.ttf / CentraleSansRnd Medium.ttf / kabel.ttf / kabel_0.ttf / LuxiSubSans-Bold.ttf

Video
ID                                       : 1
Format                                   : AV1
Format/Info                              : AOMedia Video 1
Codec ID                                 : V_AV1
Duration                                 : 23 min 41 s
Bit rate                                 : 865 kb/s
Width                                    : 1 920 pixels
Height                                   : 1 080 pixels
Display aspect ratio                     : 16:9
Frame rate mode                          : Constant
Frame rate                               : 23.976 (24000/1001) FPS
Bits/(Pixel*Frame)                       : 0.017
Stream size                              : 147 MiB (84%)
Title                                    : DarkRainbow
Default                                  : Yes
Forced                                   : No

Audio
ID                                       : 2
Format                                   : Opus
Codec ID                                 : A_OPUS
Duration                                 : 23 min 41 s
Bit rate                                 : 156 kb/s
Channel(s)                               : 2 channels
Channel layout                           : L R
Sampling rate                            : 48.0 kHz
Frame rate                               : 50.000 FPS (960 SPF)
Compression mode                         : Lossy
Stream size                              : 26.4 MiB (15%)
Writing library                          : Lavc58.108.100 libopus
Language                                 : Japanese
Default                                  : Yes
Forced                                   : No

Text
ID                                       : 3
Format                                   : ASS
Codec ID                                 : S_TEXT/ASS
Codec ID/Info                            : Advanced Sub Station Alpha
Duration                                 : 23 min 31 s
Bit rate                                 : 431 b/s
Count of elements                        : 767
Compression mode                         : Lossless
Stream size                              : 74.3 KiB (0%)
Title                                    : HAS
Language                                 : English
Default                                  : Yes
Forced                                   : No

Menu
00:00:00.000                             : Prologue
00:00:47.046                             : OP
00:01:32.801                             : Episode
00:22:10.370                             : ED

Other Files in this Torrent
[Dark] Eromanga-sensei - OVA01 - Elf Yamada's Love Song.mkv
beta
Anime DDL+NZB mirror
Current Time: 04/12/2021 07:05



About/FAQs

Discord