[Dark] Eromanga-sensei - 03 - Buck Naked Mansion and the Fallen Master.mkv


File Size205.5 MB (215,501,892 bytes)
DownloadAnonFiles | ClickNUpload | DropAPK | Free | MultiUp
  • BdUpload
  • DownAce
  • Fichier
  • FileCloud
  • Filerio
  • FilesCdn
  • IndiShare
  • Kbagi
  • Turbobit
  • UpToBox
  • Uppit
| SolidFiles | ZippyShare
HashesCRC32: DC876626, MD5: 4FAD3E924698481A01DC76B9618CC120, SHA1: D08A3F332AA94D3E6C11D0F87E655A6D6DDEC23E, SHA256: F5CBB1417F40A40EFDF59A5E40E7DFC63DA96B630F4E90D7A985703B5B1E3A16, ED2K: 5DCD9D423A94784DB07DD3CB9D88B000
Screenshots
screenshotscreenshotscreenshotscreenshotscreenshot
SubtitlesAll Attachments | DDY [eng, ASS]
Additional Info
General
Unique ID                                : 125167419393502405202361946848302665834 (0x5E2A5E3C455F0907D27124BF8EAF106A)
Complete name                            : [Dark] Eromanga-sensei - 03 - Buck Naked Mansion and the Fallen Master.mkv
Format                                   : Matroska
Format version                           : Version 4
File size                                : 206 MiB
Duration                                 : 23 min 42 s
Overall bit rate                         : 1 212 kb/s
Encoded date                             : UTC 2021-03-23 11:14:01
Writing application                      : mkvmerge v54.0.0 ('F Maj Pixie') 64-bit
Writing library                          : libebml v1.4.2 + libmatroska v1.6.3
Attachments                              : ChartIt_Normal.ttf / ConferenceD.TTF / DFPPop-CP-En_0.ttf / eightc.ttf / GandhiSans-Bold.otf / GandhiSans-BoldItalic.otf / PIZZADUDEPOINTERS.ttf / SourceSansPro-Regular.otf / Tkclscrd.TTF / Transit-Black.otf / VeracruzCondensed.otf

Video
ID                                       : 1
Format                                   : AV1
Format/Info                              : AOMedia Video 1
Codec ID                                 : V_AV1
Duration                                 : 23 min 42 s
Bit rate                                 : 1 011 kb/s
Width                                    : 1 920 pixels
Height                                   : 1 080 pixels
Display aspect ratio                     : 16:9
Frame rate mode                          : Constant
Frame rate                               : 23.976 (24000/1001) FPS
Bits/(Pixel*Frame)                       : 0.020
Stream size                              : 171 MiB (83%)
Title                                    : DarkRainbow
Default                                  : Yes
Forced                                   : No

Audio
ID                                       : 2
Format                                   : Opus
Codec ID                                 : A_OPUS
Duration                                 : 23 min 42 s
Bit rate                                 : 157 kb/s
Channel(s)                               : 2 channels
Channel layout                           : L R
Sampling rate                            : 48.0 kHz
Frame rate                               : 50.000 FPS (960 SPF)
Compression mode                         : Lossy
Stream size                              : 26.7 MiB (13%)
Writing library                          : Lavc58.108.100 libopus
Language                                 : Japanese
Default                                  : Yes
Forced                                   : No

Text
ID                                       : 3
Format                                   : ASS
Codec ID                                 : S_TEXT/ASS
Codec ID/Info                            : Advanced Sub Station Alpha
Duration                                 : 23 min 34 s
Bit rate                                 : 26.5 kb/s
Count of elements                        : 53471
Compression mode                         : Lossless
Stream size                              : 4.47 MiB (2%)
Title                                    : DDY
Language                                 : English
Default                                  : Yes
Forced                                   : No

Menu
00:00:16.990                             : en:OP
00:01:47.000                             : en:Part A
00:12:30.470                             : en:Part B
00:21:59.960                             : en:ED
00:23:29.970                             : en:Preview

Other Files in this Torrent
[Dark] Eromanga-sensei - 03 - Buck Naked Mansion and the Fallen Master.mkv
beta
Anime DDL+NZB mirror
Current Time: 04/12/2021 07:52



About/FAQs

Discord