[Dark] Eromanga-sensei - 07 - Little Sister and the Most Interesting Novel in the World.mkv


File Size194.8 MB (204,270,947 bytes)
DownloadAnonFiles | ClickNUpload | DropAPK | Free | MultiUp
  • BdUpload
  • DownAce
  • Fichier
  • FileCloud
  • Filerio
  • FilesCdn
  • IndiShare
  • Kbagi
  • Turbobit
  • UpToBox
  • Uppit
| SolidFiles | ZippyShare
HashesCRC32: AA599D5C, MD5: 38A49E97DC015717DF81262A9BC37A9C, SHA1: ED86291AB3DDB1D5734AB83213395F839D9980A0, SHA256: 40809FEFC677BF6D97B403E1831037A469D88C87319AF8A3D1497D302AB599DC, ED2K: B828779FC5E3F1626771F1BE70AA1BD6
Screenshots
screenshotscreenshotscreenshotscreenshotscreenshot
SubtitlesAll Attachments | Nii-Sama-Noro Light Version [eng, ASS]
Additional Info
General
Unique ID                                : 155321296917506468525872626570646741046 (0x74D9CB2E2EE1B09973B08256A38B6036)
Complete name                            : [Dark] Eromanga-sensei - 07 - Little Sister and the Most Interesting Novel in the World.mkv
Format                                   : Matroska
Format version                           : Version 4
File size                                : 195 MiB
Duration                                 : 23 min 42 s
Overall bit rate                         : 1 149 kb/s
Movie name                               : [Dark] Eromanga-sensei - 07: Little Sister and the Most Interesting Novel in the World
Encoded date                             : UTC 2021-04-25 11:49:04
Writing application                      : mkvmerge v56.1.0 ('My Friend') 64-bit
Writing library                          : libebml v1.4.2 + libmatroska v1.6.4
Attachments                              : ChartIt_Normal.ttf / DFPPop-CP-En.ttf / GandhiSans-Bold.otf / GandhiSans-BoldItalic.otf / Holden-Fat-trial.ttf / KOZGOPRO-MEDIUM-ENG.TTF / KOZUKAGOTHICPR6NH.TTF / Waterlily Script.otf / Brushaff.otf / Cihuy.ttf / ConferenceD.TTF / FOT-CEZANNEPROEB.TTF

Video
ID                                       : 1
Format                                   : AV1
Format/Info                              : AOMedia Video 1
Codec ID                                 : V_AV1
Duration                                 : 23 min 42 s
Bit rate                                 : 910 kb/s
Width                                    : 1 920 pixels
Height                                   : 1 080 pixels
Display aspect ratio                     : 16:9
Frame rate mode                          : Constant
Frame rate                               : 23.976 (24000/1001) FPS
Bits/(Pixel*Frame)                       : 0.018
Stream size                              : 154 MiB (79%)
Title                                    : DarkRainbow
Default                                  : Yes
Forced                                   : No

Audio
ID                                       : 2
Format                                   : Opus
Codec ID                                 : A_OPUS
Duration                                 : 23 min 42 s
Bit rate                                 : 157 kb/s
Channel(s)                               : 2 channels
Channel layout                           : L R
Sampling rate                            : 48.0 kHz
Frame rate                               : 50.000 FPS (960 SPF)
Compression mode                         : Lossy
Stream size                              : 26.6 MiB (14%)
Language                                 : Japanese
Default                                  : Yes
Forced                                   : No

Text
ID                                       : 3
Format                                   : ASS
Muxing mode                              : zlib
Codec ID                                 : S_TEXT/ASS
Codec ID/Info                            : Advanced Sub Station Alpha
Duration                                 : 23 min 33 s
Bit rate                                 : 59.2 kb/s
Count of elements                        : 81399
Compression mode                         : Lossless
Stream size                              : 9.97 MiB (5%)
Title                                    : Nii-Sama-Noro Light Version
Language                                 : English
Default                                  : Yes
Forced                                   : No

Menu
00:00:00.000                             : Intro
00:02:04.666                             : OP
00:03:34.000                             : Part 01
00:09:10.000                             : Part 02
00:21:41.000                             : ED
00:23:11.000                             : Preview

Other Files in this Torrent
[Dark] Eromanga-sensei - 07 - Little Sister and the Most Interesting Novel in the World.mkv
beta
Anime DDL+NZB mirror
Current Time: 04/12/2021 07:44



About/FAQs

Discord