[Dark] Eromanga-sensei - 09 - Little Sister and the Fairy Island.mkv


File Size184.5 MB (193,505,917 bytes)
DownloadAnonFiles | ClickNUpload | DropAPK | Free | MultiUp
  • BdUpload
  • DownAce
  • Fichier
  • FileCloud
  • Filerio
  • FilesCdn
  • IndiShare
  • Kbagi
  • Turbobit
  • UpToBox
  • Uppit
| SolidFiles | ZippyShare
HashesCRC32: 89C247A2, MD5: 92D7CFBF2D23B4E1864674746E6CAA7D, SHA1: 5D8D1470CA1A40E11456185F41B5212F1389608C, SHA256: E59C1CCF07F18741AA246F6BC70179AEC7FF8F6401C092A19F371C832109C135, ED2K: 701C45515FEA285EF239802E9AFA8659
Screenshots
screenshotscreenshotscreenshotscreenshotscreenshot
SubtitlesAll Attachments | Nii-Sama-Noro [eng, ASS]
Additional Info
General
Unique ID                                : 170252025782620367399092879241562962554 (0x801558F2CB1DC6C4165F5DC0809A3A7A)
Complete name                            : [Dark] Eromanga-sensei - 09 - Little Sister and the Fairy Island.mkv
Format                                   : Matroska
Format version                           : Version 4
File size                                : 185 MiB
Duration                                 : 23 min 42 s
Overall bit rate                         : 1 089 kb/s
Movie name                               : [Dark] Eromanga-sensei - 09: Little Sister and the Fairy Island
Encoded date                             : UTC 2021-04-25 11:00:10
Writing application                      : mkvmerge v56.1.0 ('My Friend') 64-bit
Writing library                          : libebml v1.4.2 + libmatroska v1.6.4
Attachments                              : GandhiSans-Bold.otf / GandhiSans-BoldItalic.otf / TT Masters DEMO Black.otf / BrushStroke 26 Normal.ttf / ChartIt_Normal.ttf / ConferenceD.TTF / DavysCrappyWrit.ttf / DFPPop-CP-En.ttf

Video
ID                                       : 1
Format                                   : AV1
Format/Info                              : AOMedia Video 1
Codec ID                                 : V_AV1
Duration                                 : 23 min 42 s
Bit rate                                 : 891 kb/s
Width                                    : 1 920 pixels
Height                                   : 1 080 pixels
Display aspect ratio                     : 16:9
Frame rate mode                          : Constant
Frame rate                               : 23.976 (24000/1001) FPS
Bits/(Pixel*Frame)                       : 0.018
Stream size                              : 151 MiB (82%)
Title                                    : DarkRainbow
Default                                  : Yes
Forced                                   : No

Audio
ID                                       : 2
Format                                   : Opus
Codec ID                                 : A_OPUS
Duration                                 : 23 min 42 s
Bit rate                                 : 156 kb/s
Channel(s)                               : 2 channels
Channel layout                           : L R
Sampling rate                            : 48.0 kHz
Frame rate                               : 50.000 FPS (960 SPF)
Compression mode                         : Lossy
Stream size                              : 26.4 MiB (14%)
Language                                 : Japanese
Default                                  : Yes
Forced                                   : No

Text
ID                                       : 3
Format                                   : ASS
Codec ID                                 : S_TEXT/ASS
Codec ID/Info                            : Advanced Sub Station Alpha
Duration                                 : 23 min 29 s
Bit rate                                 : 25.8 kb/s
Count of elements                        : 53399
Compression mode                         : Lossless
Stream size                              : 4.33 MiB (2%)
Title                                    : Nii-Sama-Noro
Language                                 : English
Default                                  : Yes
Forced                                   : No

Menu
00:00:00.000                             : Intro
00:00:32.000                             : OP
00:02:02.000                             : Part 01
00:08:21.000                             : Part 02
00:22:00.000                             : ED
00:23:30.000                             : Preview

Other Files in this Torrent
[Dark] Eromanga-sensei - 09 - Little Sister and the Fairy Island.mkv
beta
Anime DDL+NZB mirror
Current Time: 04/12/2021 07:32



About/FAQs

Discord