[Dark] Eromanga-sensei - 08 - Dreaming Sagiri and Summer Fireworks.mkv


File Size204.8 MB (214,797,422 bytes)
DownloadAnonFiles | ClickNUpload | DropAPK | Free | MultiUp
  • BdUpload
  • DownAce
  • Fichier
  • FileCloud
  • Filerio
  • FilesCdn
  • IndiShare
  • Kbagi
  • Turbobit
  • UpToBox
  • Uppit
| SolidFiles | ZippyShare
HashesCRC32: 68D3F1C3, MD5: DFACEAE2164300266BE8810877CC54BC, SHA1: 84D81055FF1878DFD6EA2690AC71B733C6545442, SHA256: F938F8DF29677850934B2C7FEC3F38ECF2C3FA4CD0C488DF77C74401355D5684, ED2K: 0795F758911AF4ED0CFC28453B9837AA
Screenshots
screenshotscreenshotscreenshotscreenshotscreenshot
SubtitlesAll Attachments | Nii-Sama-Noro [eng, ASS]
Additional Info
General
Unique ID                                : 193513411705111169311827019922185865577 (0x919553D214E417BA9AAC2A0F952B4969)
Complete name                            : [Dark] Eromanga-sensei - 08 - Dreaming Sagiri and Summer Fireworks.mkv
Format                                   : Matroska
Format version                           : Version 4
File size                                : 205 MiB
Duration                                 : 23 min 42 s
Overall bit rate                         : 1 208 kb/s
Movie name                               : [Dark] Eromanga-sensei - 08: Dreaming Sagiri and Summer Fireworks
Encoded date                             : UTC 2021-04-25 10:53:20
Writing application                      : mkvmerge v56.1.0 ('My Friend') 64-bit
Writing library                          : libebml v1.4.2 + libmatroska v1.6.4
Attachments                              : Bemio.otf / ChartIt_Normal.ttf / ConferenceD.TTF / DFPPop-CP-En.ttf / ElegantLux-Mager.OTF / ElegantLux-Mager.ttf / GandhiSans-BoldItalic_0.otf / GandhiSans-Bold_0.otf / Garibaldi-Medium.otf / GraviolaSoft-Medium.otf / irohamaru-mikami-Regular.ttf / Jaapokki-Regular.ttf / Monoglyceride.ttf / OpenSans-Semibold.ttf / OpenSans-Semibold_0.ttf / Perisphere.ttf / POORICH.TTF / Waterlily Script.otf / GandhiSans-Bold.otf / GandhiSans-BoldItalic.otf

Video
ID                                       : 1
Format                                   : AV1
Format/Info                              : AOMedia Video 1
Codec ID                                 : V_AV1
Duration                                 : 23 min 41 s
Bit rate                                 : 989 kb/s
Width                                    : 1 920 pixels
Height                                   : 1 080 pixels
Display aspect ratio                     : 16:9
Frame rate mode                          : Constant
Frame rate                               : 23.976 (24000/1001) FPS
Bits/(Pixel*Frame)                       : 0.020
Stream size                              : 168 MiB (82%)
Title                                    : DarkRainbow
Default                                  : Yes
Forced                                   : No

Audio
ID                                       : 2
Format                                   : Opus
Codec ID                                 : A_OPUS
Duration                                 : 23 min 42 s
Bit rate                                 : 151 kb/s
Channel(s)                               : 2 channels
Channel layout                           : L R
Sampling rate                            : 48.0 kHz
Frame rate                               : 50.000 FPS (960 SPF)
Compression mode                         : Lossy
Stream size                              : 25.6 MiB (13%)
Language                                 : Japanese
Default                                  : Yes
Forced                                   : No

Text
ID                                       : 3
Format                                   : ASS
Muxing mode                              : zlib
Codec ID                                 : S_TEXT/ASS
Codec ID/Info                            : Advanced Sub Station Alpha
Duration                                 : 23 min 28 s
Bit rate                                 : 24.4 kb/s
Count of elements                        : 51061
Compression mode                         : Lossless
Stream size                              : 4.10 MiB (2%)
Title                                    : Nii-Sama-Noro
Language                                 : English
Default                                  : Yes
Forced                                   : No

Menu
00:00:00.000                             : Intro
00:03:17.000                             : OP
00:04:47.000                             : Part 01
00:12:40.000                             : Part 02
00:22:02.666                             : ED
00:23:25.000                             : Preview

Other Files in this Torrent
[Dark] Eromanga-sensei - 08 - Dreaming Sagiri and Summer Fireworks.mkv
beta
Anime DDL+NZB mirror
Current Time: 04/12/2021 07:18



About/FAQs

Discord