[Dark] Eromanga-sensei - 05 - Let's Plan a Light-novel with your Little Sister.mkv


File Size187.1 MB (196,213,197 bytes)
DownloadAnonFiles | ClickNUpload | DropAPK | Free | MultiUp
  • BdUpload
  • DownAce
  • Fichier
  • FileCloud
  • Filerio
  • FilesCdn
  • IndiShare
  • Kbagi
  • Turbobit
  • UpToBox
  • Uppit
| SolidFiles | ZippyShare
HashesCRC32: BB149684, MD5: 0465950A92359E3BA25902AC0CB3A502, SHA1: 90DD566BCE30AD653B08A5A07FC2B17B9EBDA2FC, SHA256: 660254B26580432909363C4D4FFAA0AEAD9D815A3EB9B2FCC39C571C98A7E08B, ED2K: AC5CD517544AFE3F2C3082058CFCCE3D
Screenshots
screenshotscreenshotscreenshotscreenshotscreenshot
SubtitlesAll Attachments | Hi10 [eng, ASS]
Additional Info
General
Unique ID                                : 775849132858526942972038620167319755 (0x956C50C9C6A6D3B8814A946FC0B0CB)
Complete name                            : [Dark] Eromanga-sensei - 05 - Let's Plan a Light-novel with your Little Sister.mkv
Format                                   : Matroska
Format version                           : Version 4
File size                                : 187 MiB
Duration                                 : 23 min 42 s
Overall bit rate                         : 1 104 kb/s
Movie name                               : [Dark] Eromanga-sensei - 05: Let's Plan a Light-novel with your Little Sister
Encoded date                             : UTC 2021-04-22 15:20:58
Writing application                      : mkvmerge v56.1.0 ('My Friend') 64-bit
Writing library                          : libebml v1.4.2 + libmatroska v1.6.4
Attachments                              : Courgette-Regular.ttf / GandhiSans-Bold.otf / GandhiSans-BoldItalic.otf / KozGoPr6n-B.ttf / AnjaEliane.ttf / ConferenceD.TTF / ChartIt_Normal.ttf / DFPPop-CP-En.ttf

Video
ID                                       : 1
Format                                   : AV1
Format/Info                              : AOMedia Video 1
Codec ID                                 : V_AV1
Duration                                 : 23 min 42 s
Bit rate                                 : 907 kb/s
Width                                    : 1 920 pixels
Height                                   : 1 080 pixels
Display aspect ratio                     : 16:9
Frame rate mode                          : Constant
Frame rate                               : 23.976 (24000/1001) FPS
Bits/(Pixel*Frame)                       : 0.018
Stream size                              : 154 MiB (82%)
Title                                    : DarkRainbow
Default                                  : Yes
Forced                                   : No

Audio
ID                                       : 2
Format                                   : Opus
Codec ID                                 : A_OPUS
Duration                                 : 23 min 42 s
Bit rate                                 : 155 kb/s
Channel(s)                               : 2 channels
Channel layout                           : L R
Sampling rate                            : 48.0 kHz
Frame rate                               : 50.000 FPS (960 SPF)
Compression mode                         : Lossy
Stream size                              : 26.3 MiB (14%)
Language                                 : Japanese
Default                                  : Yes
Forced                                   : No

Text
ID                                       : 3
Format                                   : ASS
Muxing mode                              : zlib
Codec ID                                 : S_TEXT/ASS
Codec ID/Info                            : Advanced Sub Station Alpha
Duration                                 : 23 min 31 s
Bit rate                                 : 25.0 kb/s
Count of elements                        : 52123
Compression mode                         : Lossless
Stream size                              : 4.20 MiB (2%)
Title                                    : Hi10
Language                                 : English
Default                                  : Yes
Forced                                   : No

Menu
00:00:00.000                             : Intro
00:03:32.462                             : OP
00:05:02.094                             : Part 01
00:10:23.000                             : Part 02
00:22:00.570                             : ED
00:23:30.243                             : Preview

Other Files in this Torrent
[Dark] Eromanga-sensei - 05 - Let's Plan a Light-novel with your Little Sister.mkv
beta
Anime DDL+NZB mirror
Current Time: 04/12/2021 08:11



About/FAQs

Discord