[Dark] Eromanga-sensei - 04 - Eromanga-sensei.mkv


File Size193.4 MB (202,817,243 bytes)
DownloadAnonFiles | ClickNUpload | DropAPK | Free | MultiUp
  • BdUpload
  • DownAce
  • Fichier
  • FileCloud
  • Filerio
  • FilesCdn
  • IndiShare
  • Kbagi
  • Turbobit
  • UpToBox
  • Uppit
| SolidFiles | ZippyShare
HashesCRC32: 8CA302B3, MD5: CAEC043FD00324BA39D39659780DE4A2, SHA1: BA250FC3F77CAB2797815D867F7AE83875927016, SHA256: D5645F8EB10C891B3AD2DE743E263D75865A5C452168E2092D858563CBBBCACF, ED2K: 6565B85451AD90975238F6B1E36A97B4
Screenshots
screenshotscreenshotscreenshotscreenshotscreenshot
SubtitlesAll Attachments | DDY [eng, ASS]
Additional Info
General
Unique ID                                : 233573995489631486345304778114839315114 (0xAFB8B71849E37F04B6063A4D9ED382AA)
Complete name                            : [Dark] Eromanga-sensei - 04 - Eromanga-sensei.mkv
Format                                   : Matroska
Format version                           : Version 4
File size                                : 193 MiB
Duration                                 : 23 min 42 s
Overall bit rate                         : 1 141 kb/s
Movie name                               : [Dark] Eromanga-sensei - 04: Eromanga-sensei
Encoded date                             : UTC 2021-04-25 12:01:12
Writing application                      : mkvmerge v56.1.0 ('My Friend') 64-bit
Writing library                          : libebml v1.4.2 + libmatroska v1.6.4
Attachments                              : ChartIt_Normal.ttf / COMIRG.TTF / ConferenceD.TTF / DFPPop-CP-En_0.ttf / Elementary, My dear.ttf / EmpireFalls.otf / GandhiSans-Bold.otf / GandhiSans-BoldItalic.otf / HeinWriting.ttf

Video
ID                                       : 1
Format                                   : AV1
Format/Info                              : AOMedia Video 1
Codec ID                                 : V_AV1
Duration                                 : 23 min 42 s
Bit rate                                 : 941 kb/s
Width                                    : 1 920 pixels
Height                                   : 1 080 pixels
Display aspect ratio                     : 16:9
Frame rate mode                          : Constant
Frame rate                               : 23.976 (24000/1001) FPS
Bits/(Pixel*Frame)                       : 0.019
Stream size                              : 159 MiB (82%)
Title                                    : DarkRainbow
Default                                  : Yes
Forced                                   : No

Audio
ID                                       : 2
Format                                   : Opus
Codec ID                                 : A_OPUS
Duration                                 : 23 min 42 s
Bit rate                                 : 156 kb/s
Channel(s)                               : 2 channels
Channel layout                           : L R
Sampling rate                            : 48.0 kHz
Frame rate                               : 50.000 FPS (960 SPF)
Compression mode                         : Lossy
Stream size                              : 26.5 MiB (14%)
Writing library                          : Lavc58.108.100 libopus
Language                                 : Japanese
Default                                  : Yes
Forced                                   : No

Text
ID                                       : 3
Format                                   : ASS
Muxing mode                              : zlib
Codec ID                                 : S_TEXT/ASS
Codec ID/Info                            : Advanced Sub Station Alpha
Duration                                 : 23 min 32 s
Bit rate                                 : 27.7 kb/s
Count of elements                        : 53531
Compression mode                         : Lossless
Stream size                              : 4.67 MiB (2%)
Title                                    : DDY
Language                                 : English
Default                                  : Yes
Forced                                   : No

Menu
00:00:00.033                             : Intro
00:00:37.010                             : OP
00:02:06.980                             : Part A
00:10:03.490                             : Part B
00:19:23.050                             : ED
00:20:52.980                             : Epilogue
00:23:30.010                             : Preview

Other Files in this Torrent
[Dark] Eromanga-sensei - 04 - Eromanga-sensei.mkv
beta
Anime DDL+NZB mirror
Current Time: 04/12/2021 08:26



About/FAQs

Discord