[Dark] Eromanga-sensei - 11 - How the Two Met and Future Siblings.mkv


File Size199.3 MB (208,981,223 bytes)
DownloadAnonFiles | ClickNUpload | DropAPK | Free | MultiUp
  • BdUpload
  • DownAce
  • Fichier
  • FileCloud
  • Filerio
  • FilesCdn
  • IndiShare
  • Kbagi
  • Turbobit
  • UpToBox
  • Uppit
| SolidFiles | ZippyShare
HashesCRC32: 6A74EF6A, MD5: 816C64E0A73BDBADF22ECA5DF4D55675, SHA1: CBAC95E50CD2B37CF477748C082CAA974B8F7E7D, SHA256: 73FBD76F7FE9519B8E07C17096D4901B440D8A744AA2C220394D7D90A74D8D23, ED2K: 85F497025785D7DC811DE6475FB995B2
Screenshots
screenshotscreenshotscreenshotscreenshotscreenshot
SubtitlesAll Attachments | Nii-Sama-Noro [eng, ASS]
Additional Info
General
Unique ID                                : 64490013593041720060036428929839305412 (0x3084532802F554CA376CF3B5FD0E92C4)
Complete name                            : [Dark] Eromanga-sensei - 11 - How the Two Met and Future Siblings.mkv
Format                                   : Matroska
Format version                           : Version 4
File size                                : 199 MiB
Duration                                 : 23 min 42 s
Overall bit rate                         : 1 176 kb/s
Movie name                               : [Dark] Eromanga-sensei - 11: How the Two Met and Future Siblings
Encoded date                             : UTC 2021-04-25 11:26:23
Writing application                      : mkvmerge v56.1.0 ('My Friend') 64-bit
Writing library                          : libebml v1.4.2 + libmatroska v1.6.4
Attachments                              : DFPPop-CP-En.ttf / FOT-CEZANNEPROEB.TTF / GandhiSans-Bold.otf / GandhiSans-BoldItalic.otf / Handwritten_Crystal_v2.ttf / KOZGOPRO-MEDIUM-ENG.TTF / SWZ721BR.ttf / BRUSH-HYOUKA.TTF / BrushStroke 26 Normal.ttf / ConferenceD.TTF / CrayonHandRegular2016Demo.ttf

Video
ID                                       : 1
Format                                   : AV1
Format/Info                              : AOMedia Video 1
Codec ID                                 : V_AV1
Duration                                 : 23 min 42 s
Bit rate                                 : 970 kb/s
Width                                    : 1 920 pixels
Height                                   : 1 080 pixels
Display aspect ratio                     : 16:9
Frame rate mode                          : Constant
Frame rate                               : 23.976 (24000/1001) FPS
Bits/(Pixel*Frame)                       : 0.020
Stream size                              : 164 MiB (83%)
Title                                    : DarkRainbow
Default                                  : Yes
Forced                                   : No

Audio
ID                                       : 2
Format                                   : Opus
Codec ID                                 : A_OPUS
Duration                                 : 23 min 42 s
Bit rate                                 : 155 kb/s
Channel(s)                               : 2 channels
Channel layout                           : L R
Sampling rate                            : 48.0 kHz
Frame rate                               : 50.000 FPS (960 SPF)
Compression mode                         : Lossy
Stream size                              : 26.2 MiB (13%)
Language                                 : Japanese
Default                                  : Yes
Forced                                   : No

Text
ID                                       : 3
Format                                   : ASS
Muxing mode                              : zlib
Codec ID                                 : S_TEXT/ASS
Codec ID/Info                            : Advanced Sub Station Alpha
Duration                                 : 23 min 34 s
Bit rate                                 : 26.4 kb/s
Count of elements                        : 54135
Compression mode                         : Lossless
Stream size                              : 4.46 MiB (2%)
Title                                    : Nii-Sama-Noro
Language                                 : English
Default                                  : Yes
Forced                                   : No

Menu
00:00:00.000                             : Intro
00:02:38.000                             : OP
00:04:08.000                             : Part 01
00:11:20.000                             : Part 02
00:21:00.000                             : ED
00:23:30.000                             : Preview

Other Files in this Torrent
[Dark] Eromanga-sensei - 11 - How the Two Met and Future Siblings.mkv
beta
Anime DDL+NZB mirror
Current Time: 04/12/2021 07:06



About/FAQs

Discord