[Dark] Eromanga-sensei - 02 - Class Rep with a Normie Life, and a Fearless Fairy.mkv


File Size168.9 MB (177,107,589 bytes)
DownloadAnonFiles | ClickNUpload | DropAPK | Free | MultiUp
  • BdUpload
  • DownAce
  • Fichier
  • FileCloud
  • Filerio
  • FilesCdn
  • IndiShare
  • Kbagi
  • Turbobit
  • UpToBox
  • Uppit
| SolidFiles | ZippyShare
HashesCRC32: ADA7908E, MD5: 32BD5B0DB00A434614431D75EF4C8BB5, SHA1: 86619AD47D997E364B5D770D27EFB358989BE7DC, SHA256: 4FD33C1550A74B47C0CE901F8B368D02CA1BCEA5A973221C97D6FA9EC8CA9DB8, ED2K: DD1D247E447CF955C43B0DDDDFC1C382
Screenshots
screenshotscreenshotscreenshotscreenshotscreenshot
SubtitlesAll Attachments | DDY [eng, ASS]
Additional Info
General
Unique ID                                : 30079767342935276092292453840400213173 (0x16A12707EB75C264ADF6592CC9B0E4B5)
Complete name                            : [Dark] Eromanga-sensei - 02 - Class Rep with a Normie Life, and a Fearless Fairy.mkv
Format                                   : Matroska
Format version                           : Version 4
File size                                : 169 MiB
Duration                                 : 23 min 42 s
Overall bit rate                         : 996 kb/s
Movie name                               : [Dark] Eromanga-sensei - 02: Class Rep with a Normie Life, and a Fearless Fairy
Encoded date                             : UTC 2021-03-23 11:09:31
Writing application                      : mkvmerge v54.0.0 ('F Maj Pixie') 64-bit
Writing library                          : libebml v1.4.2 + libmatroska v1.6.3
Attachments                              : BriosoPro-Regular.otf / ChartIt_Normal.ttf / ConferenceD.TTF / daddysgirl.ttf / DFPPop-CP-En_0.ttf / GandhiSans-Bold.otf / GandhiSans-BoldItalic.otf / HeinWriting.ttf / Roboto Regular.TTF / RolandBecker Bold.ttf / second breakfast.ttf / Sile.ttf

Video
ID                                       : 1
Format                                   : AV1
Format/Info                              : AOMedia Video 1
Codec ID                                 : V_AV1
Duration                                 : 23 min 42 s
Bit rate                                 : 799 kb/s
Width                                    : 1 920 pixels
Height                                   : 1 080 pixels
Display aspect ratio                     : 16:9
Frame rate mode                          : Constant
Frame rate                               : 23.976 (24000/1001) FPS
Bits/(Pixel*Frame)                       : 0.016
Stream size                              : 135 MiB (80%)
Title                                    : DarkRainbow
Default                                  : Yes
Forced                                   : No

Audio
ID                                       : 2
Format                                   : Opus
Codec ID                                 : A_OPUS
Duration                                 : 23 min 42 s
Bit rate                                 : 153 kb/s
Channel(s)                               : 2 channels
Channel layout                           : L R
Sampling rate                            : 48.0 kHz
Frame rate                               : 50.000 FPS (960 SPF)
Compression mode                         : Lossy
Stream size                              : 26.0 MiB (15%)
Language                                 : Japanese
Default                                  : Yes
Forced                                   : No

Text
ID                                       : 3
Format                                   : ASS
Codec ID                                 : S_TEXT/ASS
Codec ID/Info                            : Advanced Sub Station Alpha
Duration                                 : 23 min 32 s
Bit rate                                 : 25.7 kb/s
Count of elements                        : 53071
Compression mode                         : Lossless
Stream size                              : 4.32 MiB (3%)
Title                                    : DDY
Language                                 : English
Default                                  : Yes
Forced                                   : No

Menu
00:00:00.033                             : en:Intro / en:Prologue
00:02:16.990                             : en:OP
00:03:46.990                             : en:Part A
00:13:17.930                             : en:Part B
00:21:59.910                             : en:ED
00:23:29.930                             : en:Preview

Other Files in this Torrent
[Dark] Eromanga-sensei - 02 - Class Rep with a Normie Life, and a Fearless Fairy.mkv
beta
Anime DDL+NZB mirror
Current Time: 04/12/2021 06:43



About/FAQs

Discord