[Dark] Eromanga-sensei - 10 - Masamune Izumi and the Younger Senpai.mkv


File Size179.3 MB (188,019,198 bytes)
DownloadAnonFiles | ClickNUpload | DropAPK | Free | MultiUp
  • BdUpload
  • DownAce
  • Fichier
  • FileCloud
  • Filerio
  • FilesCdn
  • IndiShare
  • Kbagi
  • Turbobit
  • UpToBox
  • Uppit
| SolidFiles | ZippyShare
HashesCRC32: EC485D91, MD5: 183CA0C1F55CDC751B1AD982EA52783F, SHA1: 38F58B9F66DDDAC90A976C36F968F515D679B001, SHA256: ED543B02A8256534C0AADEC29FF240C452C1860B4B648ED7D72F5752A540FAA2, ED2K: 31C992BDB3AD7BC2744C305064FA4767
Screenshots
screenshotscreenshotscreenshotscreenshotscreenshot
SubtitlesAll Attachments | Nii-Sama-Noro [eng, ASS]
Additional Info
General
Unique ID                                : 95157518613445759903864758122767123664 (0x4796ABE45A10324565927540B74704D0)
Complete name                            : [Dark] Eromanga-sensei - 10 - Masamune Izumi and the Younger Senpai.mkv
Format                                   : Matroska
Format version                           : Version 4
File size                                : 179 MiB
Duration                                 : 23 min 42 s
Overall bit rate                         : 1 058 kb/s
Movie name                               : [Dark] Eromanga-sensei - 10: Masamune Izumi and the Younger Senpai
Encoded date                             : UTC 2021-04-25 11:14:03
Writing application                      : mkvmerge v56.1.0 ('My Friend') 64-bit
Writing library                          : libebml v1.4.2 + libmatroska v1.6.4
Attachments                              : DFPPop-CP-En.ttf / DavysCrappyWrit.ttf / decalled script demo version.ttf / GandhiSans-Bold.otf / GandhiSans-BoldItalic.otf / KGChasingPavements.ttf / Alpha54.ttf / ChartIt_Normal.ttf / ConferenceD.TTF

Video
ID                                       : 1
Format                                   : AV1
Format/Info                              : AOMedia Video 1
Codec ID                                 : V_AV1
Duration                                 : 23 min 42 s
Bit rate                                 : 856 kb/s
Width                                    : 1 920 pixels
Height                                   : 1 080 pixels
Display aspect ratio                     : 16:9
Frame rate mode                          : Constant
Frame rate                               : 23.976 (24000/1001) FPS
Bits/(Pixel*Frame)                       : 0.017
Stream size                              : 145 MiB (81%)
Title                                    : DarkRainbow
Default                                  : Yes
Forced                                   : No

Audio
ID                                       : 2
Format                                   : Opus
Codec ID                                 : A_OPUS
Duration                                 : 23 min 42 s
Bit rate                                 : 155 kb/s
Channel(s)                               : 2 channels
Channel layout                           : L R
Sampling rate                            : 48.0 kHz
Frame rate                               : 50.000 FPS (960 SPF)
Compression mode                         : Lossy
Stream size                              : 26.3 MiB (15%)
Language                                 : Japanese
Default                                  : Yes
Forced                                   : No

Text
ID                                       : 3
Format                                   : ASS
Muxing mode                              : zlib
Codec ID                                 : S_TEXT/ASS
Codec ID/Info                            : Advanced Sub Station Alpha
Duration                                 : 23 min 23 s
Bit rate                                 : 26.6 kb/s
Count of elements                        : 54716
Compression mode                         : Lossless
Stream size                              : 4.45 MiB (2%)
Title                                    : Nii-Sama-Noro
Language                                 : English
Default                                  : Yes
Forced                                   : No

Menu
00:00:00.000                             : Intro
00:00:41.000                             : OP
00:02:12.000                             : Part 01
00:09:32.000                             : Part 02
00:22:00.000                             : ED
00:23:30.000                             : Preview

Other Files in this Torrent
[Dark] Eromanga-sensei - 10 - Masamune Izumi and the Younger Senpai.mkv
beta
Anime DDL+NZB mirror
Current Time: 04/12/2021 08:29



About/FAQs

Discord