[Dark] Eromanga-sensei - 06 - Masamune Izumi and the Nemesis of Ten Million Copies.mkv


File Size206.3 MB (216,287,854 bytes)
DownloadAnonFiles | ClickNUpload | DropAPK | Free | MultiUp
  • BdUpload
  • DownAce
  • Fichier
  • FileCloud
  • Filerio
  • FilesCdn
  • IndiShare
  • Kbagi
  • Turbobit
  • UpToBox
  • Uppit
| SolidFiles | ZippyShare
HashesCRC32: 894CF884, MD5: F34751CE5D9147C5D64A9B9C2EA655F2, SHA1: 02D8B7854BE126D53D04CA47DBF4B5DA4CFEB199, SHA256: 283138782D7FD5FBBEF04BA6D3DBFB02CF9333863C56A9C7B00C41EFAC4CBC65, ED2K: CDB8BA539A99E621249A4521C233C119
Screenshots
screenshotscreenshotscreenshotscreenshotscreenshot
SubtitlesAll Attachments | Nii-Sama-Noro [eng, ASS]
Additional Info
General
Unique ID                                : 60391237750990582501441973645718152075 (0x2D6EEDE7ACB3EB6025489966AD91638B)
Complete name                            : [Dark] Eromanga-sensei - 06 - Masamune Izumi and the Nemesis of Ten Million Copies.mkv
Format                                   : Matroska
Format version                           : Version 4
File size                                : 206 MiB
Duration                                 : 23 min 42 s
Overall bit rate                         : 1 217 kb/s
Movie name                               : [Dark] Eromanga-sensei - 06: Masamune Izumi and the Nemesis of Ten Million Copies
Encoded date                             : UTC 2021-04-25 11:50:38
Writing application                      : mkvmerge v56.1.0 ('My Friend') 64-bit
Writing library                          : libebml v1.4.2 + libmatroska v1.6.4
Attachments                              : ChartIt_Normal.ttf / DFPPop-CP-En.ttf / GandhiSans-BoldItalic.otf / KOZUKAGOTHICPR6NH.TTF / second breakfast.ttf / ConferenceD.TTF / Courgette-Regular.ttf / DavysCrappyWrit.ttf / GandhiSans-Bold.otf

Video
ID                                       : 1
Format                                   : AV1
Format/Info                              : AOMedia Video 1
Codec ID                                 : V_AV1
Duration                                 : 23 min 42 s
Bit rate                                 : 1 003 kb/s
Width                                    : 1 920 pixels
Height                                   : 1 080 pixels
Display aspect ratio                     : 16:9
Frame rate mode                          : Constant
Frame rate                               : 23.976 (24000/1001) FPS
Bits/(Pixel*Frame)                       : 0.020
Stream size                              : 170 MiB (82%)
Title                                    : DarkRainbow
Default                                  : Yes
Forced                                   : No

Audio
ID                                       : 2
Format                                   : Opus
Codec ID                                 : A_OPUS
Duration                                 : 23 min 42 s
Bit rate                                 : 153 kb/s
Channel(s)                               : 2 channels
Channel layout                           : L R
Sampling rate                            : 48.0 kHz
Frame rate                               : 50.000 FPS (960 SPF)
Compression mode                         : Lossy
Stream size                              : 26.0 MiB (13%)
Language                                 : Japanese
Default                                  : Yes
Forced                                   : No

Text
ID                                       : 3
Format                                   : ASS
Codec ID                                 : S_TEXT/ASS
Codec ID/Info                            : Advanced Sub Station Alpha
Duration                                 : 23 min 31 s
Bit rate                                 : 41.0 kb/s
Count of elements                        : 61115
Compression mode                         : Lossless
Stream size                              : 6.90 MiB (3%)
Title                                    : Nii-Sama-Noro
Language                                 : English
Default                                  : Yes
Forced                                   : No

Menu
00:00:00.000                             : Intro
00:02:00.000                             : OP
00:03:30.000                             : Part 01
00:11:48.666                             : Part 02
00:22:00.000                             : ED
00:23:30.000                             : Preview

Other Files in this Torrent
[Dark] Eromanga-sensei - 06 - Masamune Izumi and the Nemesis of Ten Million Copies.mkv
beta
Anime DDL+NZB mirror
Current Time: 04/12/2021 08:22



About/FAQs

Discord