[Dark] Eromanga-sensei - 01 - My Little Sister, and the Sealed Room.mkv


File Size205.3 MB (215,322,629 bytes)
DownloadAnonFiles | ClickNUpload | DropAPK | Free | MultiUp
  • BdUpload
  • DownAce
  • Fichier
  • FileCloud
  • Filerio
  • FilesCdn
  • IndiShare
  • Kbagi
  • Turbobit
  • UpToBox
  • Uppit
| SolidFiles | ZippyShare
HashesCRC32: 46F74CF2, MD5: A9EB6B1DA1843472CEE519E9AA1AA1AE, SHA1: 5302C2B51A1C647C42D4EC14FC3A50DCC4728B8A, SHA256: DCEE64D28C3FF1E017C0FF69875012E99288EB509812B77CE2DA1A6BB5A7875D, ED2K: 0D4C55E89073848132FB28B6630576CA
Screenshots
screenshotscreenshotscreenshotscreenshotscreenshot
SubtitlesAll Attachments | DDY [eng, ASS]
Additional Info
General
Unique ID                                : 204508632844320590065811516799467690818 (0x99DAEE13B28357129EA5AC9B76AC9B42)
Complete name                            : [Dark] Eromanga-sensei - 01 - My Little Sister, and the Sealed Room.mkv
Format                                   : Matroska
Format version                           : Version 4
File size                                : 205 MiB
Duration                                 : 23 min 42 s
Overall bit rate                         : 1 211 kb/s
Movie name                               : [Dark] Eromanga-sensei - 01: My Little Sister, and the Sealed Room
Encoded date                             : UTC 2021-03-22 20:40:36
Writing application                      : mkvmerge v54.0.0 ('F Maj Pixie') 64-bit
Writing library                          : libebml v1.4.2 + libmatroska v1.6.3
Attachments                              : shazihand.ttf / TT1129M.TTF / 123MARKER.TTF / arial_6.ttf / arialbd_2.ttf / BriosoPro-Regular.otf / comicbd_0.ttf / COMIRG.TTF / ConferenceD.TTF / Crap-AOSL.otf / CRAYA_.TTF / CYHR.TTF / DFPPop-CP-En.ttf / FRANKLEINBOLD_0.TTF / GandhiSans-Bold.otf / GandhiSans-BoldItalic.otf / GaramondPremrPro.otf / Nihilschiz Handwriting.ttf

Video
ID                                       : 1
Format                                   : AV1
Format/Info                              : AOMedia Video 1
Codec ID                                 : V_AV1
Duration                                 : 23 min 42 s
Bit rate                                 : 1 011 kb/s
Width                                    : 1 920 pixels
Height                                   : 1 080 pixels
Display aspect ratio                     : 16:9
Frame rate mode                          : Constant
Frame rate                               : 23.976 (24000/1001) FPS
Bits/(Pixel*Frame)                       : 0.020
Stream size                              : 171 MiB (83%)
Title                                    : DarkRainbow
Default                                  : Yes
Forced                                   : No

Audio
ID                                       : 2
Format                                   : Opus
Codec ID                                 : A_OPUS
Duration                                 : 23 min 42 s
Bit rate                                 : 153 kb/s
Channel(s)                               : 2 channels
Channel layout                           : L R
Sampling rate                            : 48.0 kHz
Frame rate                               : 50.000 FPS (960 SPF)
Compression mode                         : Lossy
Stream size                              : 25.9 MiB (13%)
Language                                 : Japanese
Default                                  : Yes
Forced                                   : No

Text
ID                                       : 3
Format                                   : ASS
Muxing mode                              : zlib
Codec ID                                 : S_TEXT/ASS
Codec ID/Info                            : Advanced Sub Station Alpha
Duration                                 : 23 min 34 s
Bit rate                                 : 20.7 kb/s
Count of elements                        : 27204
Compression mode                         : Lossless
Stream size                              : 3.49 MiB (2%)
Title                                    : DDY
Language                                 : English
Default                                  : Yes
Forced                                   : No

Menu
00:00:00.000                             : en:Intro
00:01:12.150                             : en:Part A
00:09:38.030                             : en:Part B
00:21:57.980                             : en:ED
00:23:15.970                             : en:Epilogue
00:23:30.740                             : en:Preview

Other Files in this Torrent
[Dark] Eromanga-sensei - 01 - My Little Sister, and the Sealed Room.mkv
beta
Anime DDL+NZB mirror
Current Time: 04/12/2021 08:20



About/FAQs

Discord