[Dark] Eromanga-sensei - 12 - Eromanga Festival.mkv


File Size188.6 MB (197,757,715 bytes)
DownloadAnonFiles | ClickNUpload | DropAPK | Free | MultiUp
  • BdUpload
  • DownAce
  • Fichier
  • FileCloud
  • Filerio
  • FilesCdn
  • IndiShare
  • Kbagi
  • Turbobit
  • UpToBox
  • Uppit
| SolidFiles | ZippyShare
HashesCRC32: D8BB2841, MD5: F155F6D42288FA29BBC2086F2B2FF08D, SHA1: CF264CF9B972C868E7098419A9EFBC3B5CA1E70F, SHA256: 02055C3B8DF59BBF32674C4F05F035356566017465414799A89C91D8B2B8BB80, ED2K: D0F4F2A5C89E5641B437B6C4AB0A37EF
Screenshots
screenshotscreenshotscreenshotscreenshotscreenshot
SubtitlesAll Attachments | Nii-Sama-Noro [eng, ASS]
Additional Info
General
Unique ID                                : 77461744925269076705426873945395283950 (0x3A4696E38C467533C8133675FE0BC7EE)
Complete name                            : [Dark] Eromanga-sensei - 12 - Eromanga Festival.mkv
Format                                   : Matroska
Format version                           : Version 4
File size                                : 189 MiB
Duration                                 : 23 min 42 s
Overall bit rate                         : 1 112 kb/s
Movie name                               : [Dark] Eromanga-sensei - 12: Eromanga Festival
Encoded date                             : UTC 2021-04-25 11:42:01
Writing application                      : mkvmerge v56.1.0 ('My Friend') 64-bit
Writing library                          : libebml v1.4.2 + libmatroska v1.6.4
Attachments                              : DFPPop-CP-En.ttf / GandhiSans-Bold.otf / GandhiSans-BoldItalic.otf / Handwritten_Crystal_v2.ttf / KOZGOPRO-MEDIUM-ENG.TTF / AnnieUseYourTelescope.ttf / ChartIt_Normal.ttf

Video
ID                                       : 1
Format                                   : AV1
Format/Info                              : AOMedia Video 1
Codec ID                                 : V_AV1
Duration                                 : 23 min 42 s
Bit rate                                 : 918 kb/s
Width                                    : 1 920 pixels
Height                                   : 1 080 pixels
Display aspect ratio                     : 16:9
Frame rate mode                          : Constant
Frame rate                               : 23.976 (24000/1001) FPS
Bits/(Pixel*Frame)                       : 0.018
Stream size                              : 156 MiB (82%)
Title                                    : DarkRainbow
Default                                  : Yes
Forced                                   : No

Audio
ID                                       : 2
Format                                   : Opus
Codec ID                                 : A_OPUS
Duration                                 : 23 min 42 s
Bit rate                                 : 152 kb/s
Channel(s)                               : 2 channels
Channel layout                           : L R
Sampling rate                            : 48.0 kHz
Frame rate                               : 50.000 FPS (960 SPF)
Compression mode                         : Lossy
Stream size                              : 25.8 MiB (14%)
Language                                 : Japanese
Default                                  : Yes
Forced                                   : No

Text
ID                                       : 3
Format                                   : ASS
Muxing mode                              : zlib
Codec ID                                 : S_TEXT/ASS
Codec ID/Info                            : Advanced Sub Station Alpha
Duration                                 : 23 min 30 s
Bit rate                                 : 25.4 kb/s
Count of elements                        : 52782
Compression mode                         : Lossless
Stream size                              : 4.27 MiB (2%)
Title                                    : Nii-Sama-Noro
Language                                 : English
Default                                  : Yes
Forced                                   : No

Menu
00:00:00.000                             : Intro
00:01:18.000                             : OP
00:02:48.000                             : Part 01
00:14:10.000                             : Part 02
00:22:05.000                             : ED
00:23:35.000                             : Preview

Other Files in this Torrent
[Dark] Eromanga-sensei - 12 - Eromanga Festival.mkv
beta
Anime DDL+NZB mirror
Current Time: 04/12/2021 07:50



About/FAQs

Discord