One.Piece.S001E027.Cool-headed,.Cold-hearted.Demon!.Pirate.Fleet.Chief.Commander.Ghin!.1080p.NF.WEB-DL.DDP2.0.x264-KQRM.mkv


File Size618.2 MB (648,226,499 bytes)
DownloadClickNUpload | DownloadGG | GoFile | KrakenFiles | MdiaLoad
MultiUp: Part1
  • BdUpload
  • DownAce
  • Fichier
  • FileCloud
  • Filerio
  • FilesCdn
  • IndiShare
  • Kbagi
  • Turbobit
  • UpToBox
  • Uppit
, Part2
  • BdUpload
  • DownAce
  • Fichier
  • FileCloud
  • Filerio
  • FilesCdn
  • IndiShare
  • Kbagi
  • Turbobit
  • UpToBox
  • Uppit
HashesCRC32: 165B64B1, MD5: 1A8478F6DC5C18F17F54FC04B3768D33, SHA1: 63E690B8912F0A5E3013775F17A759C0F00A820E, SHA256: 0755EA3F1FE68D5A00E03E7C796E9E63CA8F503C676EEB5D5D6290C686CA3B17, ED2K: 2FF35D807CF8C56A43946424061537F7
Screenshots
screenshotscreenshotscreenshotscreenshotscreenshot
SubtitlesAll Attachments | English [eng, SRT], Indonesian [ind, SRT], Japanese [CC] [jpn, SRT], Malay [may, SRT], Thai [tha, SRT], Vietnamese [vie, SRT], Simplified Chinese [chi, SRT], Traditional Chinese [chi, SRT]
Additional Info
General
Unique ID                                : 247584701032930981161089680643931258686 (0xBA43143602EA129C3DFA8ADD8FC43F3E)
Complete name                            : One.Piece.S001E027.Cool-headed,.Cold-hearted.Demon!.Pirate.Fleet.Chief.Commander.Ghin!.1080p.NF.WEB-DL.DDP2.0.x264-KQRM.mkv
Format                                   : Matroska
Format version                           : Version 4
File size                                : 618 MiB
Duration                                 : 24 min 36 s
Overall bit rate mode                    : Variable
Overall bit rate                         : 3 513 kb/s
Movie name                               : Episodio 27
Encoded date                             : UTC 2023-04-16 23:21:40
Writing application                      : mkvmerge v68.0.0 ('The Curtain') 64-bit
Writing library                          : libebml v1.4.2 + libmatroska v1.6.4

Video
ID                                       : 1
Format                                   : AVC
Format/Info                              : Advanced Video Codec
Format profile                           : High@L4
Format settings                          : CABAC / 4 Ref Frames
Format settings, CABAC                   : Yes
Format settings, Reference frames        : 4 frames
Codec ID                                 : V_MPEG4/ISO/AVC
Duration                                 : 24 min 36 s
Bit rate mode                            : Variable
Bit rate                                 : 3 254 kb/s
Maximum bit rate                         : 20.0 Mb/s
Width                                    : 1 920 pixels
Height                                   : 1 080 pixels
Display aspect ratio                     : 16:9
Frame rate mode                          : Constant
Frame rate                               : 23.976 (24000/1001) FPS
Color space                              : YUV
Chroma subsampling                       : 4:2:0
Bit depth                                : 8 bits
Scan type                                : Progressive
Bits/(Pixel*Frame)                       : 0.065
Stream size                              : 573 MiB (93%)
Writing library                          : x264 core 148 r2722 1b0121b
Encoding settings                        : cabac=1 / ref=4 / deblock=1:0:0 / analyse=0x3:0x111 / me=umh / subme=10 / psy=1 / psy_rd=1.00:0.00 / mixed_ref=1 / me_range=120 / chroma_me=1 / trellis=2 / 8x8dct=1 / cqm=0 / deadzone=21,11 / fast_pskip=1 / chroma_qp_offset=-2 / threads=8 / lookahead_threads=2 / sliced_threads=0 / nr=0 / decimate=1 / interlaced=0 / bluray_compat=0 / stitchable=1 / constrained_intra=0 / bframes=16 / b_pyramid=2 / b_adapt=2 / b_bias=0 / direct=3 / weightb=1 / open_gop=0 / weightp=2 / keyint=240 / keyint_min=121 / scenecut=0 / intra_refresh=0 / rc_lookahead=240 / rc=crf / mbtree=1 / crf=24.0 / qcomp=0.50 / qpmin=6 / qpmax=51 / qpstep=4 / vbv_maxrate=20000 / vbv_bufsize=25000 / crf_max=0.0 / nal_hrd=vbr / filler=0 / ip_ratio=1.40 / aq=1:0.80
Default                                  : Yes
Forced                                   : No

Audio #1
ID                                       : 2
Format                                   : E-AC-3
Format/Info                              : Enhanced AC-3
Commercial name                          : Dolby Digital Plus
Codec ID                                 : A_EAC3
Duration                                 : 24 min 36 s
Bit rate mode                            : Constant
Bit rate                                 : 128 kb/s
Channel(s)                               : 2 channels
Channel layout                           : L R
Sampling rate                            : 48.0 kHz
Frame rate                               : 31.250 FPS (1536 SPF)
Compression mode                         : Lossy
Stream size                              : 22.5 MiB (4%)
Title                                    : English
Language                                 : English
Service kind                             : Complete Main
Default                                  : No
Forced                                   : No

Audio #2
ID                                       : 3
Format                                   : E-AC-3
Format/Info                              : Enhanced AC-3
Commercial name                          : Dolby Digital Plus
Codec ID                                 : A_EAC3
Duration                                 : 24 min 36 s
Bit rate mode                            : Constant
Bit rate                                 : 128 kb/s
Channel(s)                               : 2 channels
Channel layout                           : L R
Sampling rate                            : 48.0 kHz
Frame rate                               : 31.250 FPS (1536 SPF)
Compression mode                         : Lossy
Stream size                              : 22.5 MiB (4%)
Title                                    : Japanese [Original]
Language                                 : Japanese
Service kind                             : Complete Main
Default                                  : Yes
Forced                                   : No

Text #1
ID                                       : 4
Format                                   : UTF-8
Codec ID                                 : S_TEXT/UTF8
Codec ID/Info                            : UTF-8 Plain Text
Duration                                 : 24 min 32 s
Bit rate                                 : 52 b/s
Count of elements                        : 262
Stream size                              : 9.52 KiB (0%)
Title                                    : English
Language                                 : English
Default                                  : Yes
Forced                                   : No

Text #2
ID                                       : 5
Format                                   : UTF-8
Codec ID                                 : S_TEXT/UTF8
Codec ID/Info                            : UTF-8 Plain Text
Duration                                 : 24 min 33 s
Bit rate                                 : 53 b/s
Count of elements                        : 265
Stream size                              : 9.68 KiB (0%)
Title                                    : Indonesian
Language                                 : Indonesian
Default                                  : No
Forced                                   : No

Text #3
ID                                       : 6
Format                                   : UTF-8
Codec ID                                 : S_TEXT/UTF8
Codec ID/Info                            : UTF-8 Plain Text
Duration                                 : 24 min 32 s
Bit rate                                 : 76 b/s
Count of elements                        : 386
Stream size                              : 13.8 KiB (0%)
Title                                    : Japanese [CC]
Language                                 : Japanese
Default                                  : No
Forced                                   : No

Text #4
ID                                       : 7
Format                                   : UTF-8
Codec ID                                 : S_TEXT/UTF8
Codec ID/Info                            : UTF-8 Plain Text
Duration                                 : 24 min 33 s
Bit rate                                 : 55 b/s
Count of elements                        : 265
Stream size                              : 9.97 KiB (0%)
Title                                    : Malay
Language                                 : Malay
Default                                  : No
Forced                                   : No

Text #5
ID                                       : 8
Format                                   : UTF-8
Codec ID                                 : S_TEXT/UTF8
Codec ID/Info                            : UTF-8 Plain Text
Duration                                 : 24 min 33 s
Bit rate                                 : 127 b/s
Count of elements                        : 265
Stream size                              : 22.9 KiB (0%)
Title                                    : Thai
Language                                 : Thai
Default                                  : No
Forced                                   : No

Text #6
ID                                       : 9
Format                                   : UTF-8
Codec ID                                 : S_TEXT/UTF8
Codec ID/Info                            : UTF-8 Plain Text
Duration                                 : 24 min 33 s
Bit rate                                 : 67 b/s
Count of elements                        : 265
Stream size                              : 12.2 KiB (0%)
Title                                    : Vietnamese
Language                                 : Vietnamese
Default                                  : No
Forced                                   : No

Text #7
ID                                       : 10
Format                                   : UTF-8
Codec ID                                 : S_TEXT/UTF8
Codec ID/Info                            : UTF-8 Plain Text
Duration                                 : 24 min 33 s
Bit rate                                 : 42 b/s
Count of elements                        : 265
Stream size                              : 7.72 KiB (0%)
Title                                    : Simplified Chinese
Language                                 : Chinese
Default                                  : No
Forced                                   : No

Text #8
ID                                       : 11
Format                                   : UTF-8
Codec ID                                 : S_TEXT/UTF8
Codec ID/Info                            : UTF-8 Plain Text
Duration                                 : 24 min 33 s
Bit rate                                 : 45 b/s
Count of elements                        : 265
Stream size                              : 8.11 KiB (0%)
Title                                    : Traditional Chinese
Language                                 : Chinese
Default                                  : No
Forced                                   : No

Other Files in this Torrent
One.Piece.S001E027.Cool-headed,.Cold-hearted.Demon!.Pirate.Fleet.Chief.Commander.Ghin!.1080p.NF.WEB-DL.DDP2.0.x264-KQRM.mkv
beta
Anime DDL+NZB mirror
Current Time: 19/06/2024 19:57



About/FAQs

Discord