[NanakoRaws] Tengoku Daimakyou - 13v2 END (1080p).mkv


File Size708.7 MB (743,173,675 bytes)
DownloadClickNUpload | DailyUploads | DownloadGG | GoFile | KrakenFiles | MdiaLoad | Uppit
MultiUp: Part1
  • BdUpload
  • DownAce
  • Fichier
  • FileCloud
  • Filerio
  • FilesCdn
  • IndiShare
  • Kbagi
  • Turbobit
  • UpToBox
  • Uppit
, Part2
  • BdUpload
  • DownAce
  • Fichier
  • FileCloud
  • Filerio
  • FilesCdn
  • IndiShare
  • Kbagi
  • Turbobit
  • UpToBox
  • Uppit
HashesCRC32: C2EEC4B2, MD5: 1086BB9B37FD555F7B924F3DC996E21C, SHA1: 15D37C80C38E7C86C655CBF21485307DDD50F5F9, SHA256: EF0F1DE585F9EA9A43ABBBFBC83649E30ECA00ED3D5E5D9310BFEFDE95EAC372, ED2K: F408382AD90D8FB98FEC5C3AFE3C6180
Screenshots
screenshotscreenshotscreenshotscreenshotscreenshot
SubtitlesAll Attachments | jpn [SRT], eng [SRT]
Additional Info
General
Unique ID                                : 225350532470544271880713375057916774915 (0xA988EF109687C387C7E8012D09E0CA03)
Complete name                            : [NanakoRaws] Tengoku Daimakyou - 13v2 END (1080p).mkv
Format                                   : Matroska
Format version                           : Version 4
File size                                : 709 MiB
Duration                                 : 23 min 59 s
Overall bit rate                         : 4 129 kb/s
Frame rate                               : 23.976 FPS
Movie name                               : Encoded by DaddyPhantom
Encoded date                             : 2024-02-09 11:36:10 UTC
Writing application                      : mkvmerge v82.0 ('I'm The President') 64-bit
Writing library                          : libebml v1.4.5 + libmatroska v1.7.1 / GPAC-2.3-DEV-rev221-g200100727-ab-suite

Video
ID                                       : 1
Format                                   : AVC
Format/Info                              : Advanced Video Codec
Format profile                           : High@L5.2
Format settings                          : CABAC / 3 Ref Frames
Format settings, CABAC                   : Yes
Format settings, Reference frames        : 3 frames
Codec ID                                 : V_MPEG4/ISO/AVC
Duration                                 : 23 min 59 s
Bit rate                                 : 3 874 kb/s
Width                                    : 1 920 pixels
Height                                   : 1 080 pixels
Display aspect ratio                     : 16:9
Frame rate mode                          : Constant
Frame rate                               : 23.976 (24000/1001) FPS
Color space                              : YUV
Chroma subsampling                       : 4:2:0
Bit depth                                : 8 bits
Scan type                                : Progressive
Bits/(Pixel*Frame)                       : 0.078
Stream size                              : 665 MiB (94%)
Default                                  : Yes
Forced                                   : No
Color range                              : Limited
Color primaries                          : BT.709
Transfer characteristics                 : BT.709
Matrix coefficients                      : BT.709

Audio
ID                                       : 2
Format                                   : AAC LC
Format/Info                              : Advanced Audio Codec Low Complexity
Codec ID                                 : A_AAC-2
Duration                                 : 23 min 59 s
Bit rate                                 : 252 kb/s
Channel(s)                               : 2 channels
Channel layout                           : L R
Sampling rate                            : 48.0 kHz
Frame rate                               : 46.875 FPS (1024 SPF)
Compression mode                         : Lossy
Stream size                              : 43.3 MiB (6%)
Language                                 : Japanese
Default                                  : Yes
Forced                                   : No

Text #1
ID                                       : 3
Format                                   : UTF-8
Codec ID                                 : S_TEXT/UTF8
Codec ID/Info                            : UTF-8 Plain Text
Duration                                 : 23 min 31 s
Bit rate                                 : 72 b/s
Frame rate                               : 0.249 FPS
Count of elements                        : 351
Stream size                              : 12.5 KiB (0%)
Language                                 : Japanese
Default                                  : Yes
Forced                                   : No

Text #2
ID                                       : 4
Format                                   : UTF-8
Codec ID                                 : S_TEXT/UTF8
Codec ID/Info                            : UTF-8 Plain Text
Duration                                 : 22 min 1 s
Bit rate                                 : 61 b/s
Frame rate                               : 0.280 FPS
Count of elements                        : 370
Stream size                              : 9.94 KiB (0%)
Language                                 : English
Default                                  : Yes
Forced                                   : No

Menu
00:00:00.000                             : en:A90Sec
00:01:29.990                             : en:A
00:01:39.967                             : en:B
00:11:20.947                             : en:C
00:23:49.928                             : en:C
00:23:59.938                             : en:D

Other Files in this Torrent
[NanakoRaws] Tengoku Daimakyou - 13v2 END (1080p).mkv
beta
Anime DDL+NZB mirror
Current Time: 14/07/2024 19:55



About/FAQs

Discord