[NanakoRaws] Tengoku Daimakyou - 09v2 (1080p).mkv


File Size862.5 MB (904,396,939 bytes)
DownloadClickNUpload | DailyUploads | DownloadGG | GoFile | KrakenFiles | MdiaLoad | Uppit
MultiUp: Part1
  • BdUpload
  • DownAce
  • Fichier
  • FileCloud
  • Filerio
  • FilesCdn
  • IndiShare
  • Kbagi
  • Turbobit
  • UpToBox
  • Uppit
, Part2
  • BdUpload
  • DownAce
  • Fichier
  • FileCloud
  • Filerio
  • FilesCdn
  • IndiShare
  • Kbagi
  • Turbobit
  • UpToBox
  • Uppit
HashesCRC32: 56B147CC, MD5: A4ADD34D2BC7A95D9EC113A3CAB218D6, SHA1: 314814519E3BE69203BD85C9A9CD7C5256EC7028, SHA256: 2527590E74BC346A3440F6F831794E45EDC707E7F6FB556538E86DDED92FBA0F, ED2K: DDF1024BD2C0FE49A1563EE6BB343033
Screenshots
screenshotscreenshotscreenshotscreenshotscreenshot
SubtitlesAll Attachments | jpn [ASS], jpn [SRT], eng [SRT]
Additional Info
General
Unique ID                                : 136627406303924198112662389597108935543 (0x66C97B36A37B69BC3AE0DABEDE179B77)
Complete name                            : [NanakoRaws] Tengoku Daimakyou - 09v2 (1080p).mkv
Format                                   : Matroska
Format version                           : Version 4
File size                                : 863 MiB
Duration                                 : 23 min 59 s
Overall bit rate                         : 5 025 kb/s
Frame rate                               : 23.976 FPS
Movie name                               : Encoded by DaddyPhantom
Encoded date                             : 2024-02-09 11:30:41 UTC
Writing application                      : mkvmerge v82.0 ('I'm The President') 64-bit
Writing library                          : libebml v1.4.5 + libmatroska v1.7.1 / GPAC-2.1-DEV-rev368-gfd054169b-master

Video
ID                                       : 1
Format                                   : AVC
Format/Info                              : Advanced Video Codec
Format profile                           : High@L5.2
Format settings                          : CABAC / 3 Ref Frames
Format settings, CABAC                   : Yes
Format settings, Reference frames        : 3 frames
Codec ID                                 : V_MPEG4/ISO/AVC
Duration                                 : 23 min 59 s
Bit rate                                 : 4 769 kb/s
Width                                    : 1 920 pixels
Height                                   : 1 080 pixels
Display aspect ratio                     : 16:9
Frame rate mode                          : Constant
Frame rate                               : 23.976 (24000/1001) FPS
Color space                              : YUV
Chroma subsampling                       : 4:2:0
Bit depth                                : 8 bits
Scan type                                : Progressive
Bits/(Pixel*Frame)                       : 0.096
Stream size                              : 819 MiB (95%)
Language                                 : Japanese
Default                                  : Yes
Forced                                   : No
Color range                              : Limited
Color primaries                          : BT.709
Transfer characteristics                 : BT.709
Matrix coefficients                      : BT.709

Audio
ID                                       : 2
Format                                   : AAC LC
Format/Info                              : Advanced Audio Codec Low Complexity
Codec ID                                 : A_AAC-2
Duration                                 : 23 min 59 s
Bit rate                                 : 252 kb/s
Channel(s)                               : 2 channels
Channel layout                           : L R
Sampling rate                            : 48.0 kHz
Frame rate                               : 46.875 FPS (1024 SPF)
Compression mode                         : Lossy
Stream size                              : 43.3 MiB (5%)
Language                                 : Japanese
Default                                  : Yes
Forced                                   : No

Text #1
ID                                       : 3
Format                                   : ASS
Codec ID                                 : S_TEXT/ASS
Codec ID/Info                            : Advanced Sub Station Alpha
Duration                                 : 20 min 37 s
Bit rate                                 : 313 b/s
Frame rate                               : 0.427 FPS
Count of elements                        : 528
Compression mode                         : Lossless
Stream size                              : 47.4 KiB (0%)
Language                                 : Japanese
Default                                  : Yes
Forced                                   : No

Text #2
ID                                       : 4
Format                                   : UTF-8
Codec ID                                 : S_TEXT/UTF8
Codec ID/Info                            : UTF-8 Plain Text
Duration                                 : 20 min 37 s
Bit rate                                 : 107 b/s
Frame rate                               : 0.301 FPS
Count of elements                        : 372
Stream size                              : 16.2 KiB (0%)
Language                                 : Japanese
Default                                  : Yes
Forced                                   : No

Text #3
ID                                       : 5
Format                                   : UTF-8
Codec ID                                 : S_TEXT/UTF8
Codec ID/Info                            : UTF-8 Plain Text
Duration                                 : 21 min 43 s
Bit rate                                 : 88 b/s
Frame rate                               : 0.295 FPS
Count of elements                        : 384
Stream size                              : 14.2 KiB (0%)
Language                                 : English
Default                                  : Yes
Forced                                   : No

Menu
00:00:00.000                             : en:A90Sec
00:01:30.023                             : en:A10Sec
00:01:40.000                             : en:B
00:04:28.702                             : en:B90Sec
00:05:58.391                             : en:B
00:10:51.985                             : en:C
00:22:19.939                             : en:C90Sec
00:23:49.962                             : en:C10Sec

Other Files in this Torrent
[NanakoRaws] Tengoku Daimakyou - 09v2 (1080p).mkv
beta
Anime DDL+NZB mirror
Current Time: 14/07/2024 20:19



About/FAQs

Discord