[NanakoRaws] Tengoku Daimakyou - 02v2 (1080p).mkv


File Size397.4 MB (416,743,801 bytes)
DownloadClickNUpload | DailyUploads | DownloadGG | GoFile | KrakenFiles | MdiaLoad | MultiUp
  • BdUpload
  • DownAce
  • Fichier
  • FileCloud
  • Filerio
  • FilesCdn
  • IndiShare
  • Kbagi
  • Turbobit
  • UpToBox
  • Uppit
| Uppit
HashesCRC32: 07C3A2FB, MD5: 144C107A5634F4B0E9CE728D623FDE10, SHA1: 9A0935D8A99E6FEFA8C338FD44BC48160DFD219E, SHA256: 09EADC637FCA65B8A50E2B3BF8FE38AF9609135451225F4FFDAEA3B2DD80902A, ED2K: 29571AC2F08CCE947B0479F0E2EAD4DA
Screenshots
screenshotscreenshotscreenshotscreenshotscreenshot
SubtitlesAll Attachments | ASS [jpn, ASS], SRT [jpn, SRT], eng [SRT]
Additional Info
General
Unique ID                                : 161412052914093843157509073696030310605 (0x796ED4A2CE69DC65C3080B1ADE95C0CD)
Complete name                            : [NanakoRaws] Tengoku Daimakyou - 02v2 (1080p).mkv
Format                                   : Matroska
Format version                           : Version 4
File size                                : 397 MiB
Duration                                 : 24 min 0 s
Overall bit rate                         : 2 315 kb/s
Frame rate                               : 23.976 FPS
Encoded date                             : 2024-02-09 11:08:20 UTC
Writing application                      : mkvmerge v82.0 ('I'm The President') 64-bit
Writing library                          : libebml v1.4.5 + libmatroska v1.7.1

Video
ID                                       : 1
Format                                   : AVC
Format/Info                              : Advanced Video Codec
Format profile                           : High 10@L4
Format settings                          : CABAC / 4 Ref Frames
Format settings, CABAC                   : Yes
Format settings, Reference frames        : 4 frames
Codec ID                                 : V_MPEG4/ISO/AVC
Duration                                 : 24 min 0 s
Bit rate                                 : 2 060 kb/s
Width                                    : 1 920 pixels
Height                                   : 1 080 pixels
Display aspect ratio                     : 16:9
Frame rate mode                          : Constant
Frame rate                               : 23.976 (24000/1001) FPS
Color space                              : YUV
Chroma subsampling                       : 4:2:0
Bit depth                                : 10 bits
Scan type                                : Progressive
Bits/(Pixel*Frame)                       : 0.041
Stream size                              : 354 MiB (89%)
Language                                 : Japanese
Default                                  : Yes
Forced                                   : No
Color range                              : Limited
Color primaries                          : BT.709
Transfer characteristics                 : BT.709
Matrix coefficients                      : BT.709

Audio
ID                                       : 2
Format                                   : AAC LC
Format/Info                              : Advanced Audio Codec Low Complexity
Codec ID                                 : A_AAC-2
Duration                                 : 24 min 0 s
Bit rate                                 : 252 kb/s
Channel(s)                               : 2 channels
Channel layout                           : L R
Sampling rate                            : 48.0 kHz
Frame rate                               : 46.875 FPS (1024 SPF)
Compression mode                         : Lossy
Delay relative to video                  : 7 ms
Stream size                              : 43.3 MiB (11%)
Language                                 : Japanese
Default                                  : Yes
Forced                                   : No

Text #1
ID                                       : 3
Format                                   : ASS
Codec ID                                 : S_TEXT/ASS
Codec ID/Info                            : Advanced Sub Station Alpha
Duration                                 : 20 min 39 s
Bit rate                                 : 313 b/s
Frame rate                               : 0.429 FPS
Count of elements                        : 532
Compression mode                         : Lossless
Stream size                              : 47.5 KiB (0%)
Title                                    : ASS
Language                                 : Japanese
Default                                  : Yes
Forced                                   : No

Text #2
ID                                       : 4
Format                                   : UTF-8
Codec ID                                 : S_TEXT/UTF8
Codec ID/Info                            : UTF-8 Plain Text
Duration                                 : 20 min 39 s
Bit rate                                 : 102 b/s
Frame rate                               : 0.305 FPS
Count of elements                        : 378
Stream size                              : 15.5 KiB (0%)
Title                                    : SRT
Language                                 : Japanese
Default                                  : Yes
Forced                                   : No

Text #3
ID                                       : 5
Format                                   : UTF-8
Codec ID                                 : S_TEXT/UTF8
Codec ID/Info                            : UTF-8 Plain Text
Duration                                 : 21 min 44 s
Bit rate                                 : 64 b/s
Frame rate                               : 0.286 FPS
Count of elements                        : 373
Stream size                              : 10.2 KiB (0%)
Language                                 : English
Default                                  : Yes
Forced                                   : No

Menu
00:00:00.000                             : en:A90Sec
00:01:29.998                             : en:A10Sec
00:01:39.975                             : en:B
00:10:52.060                             : en:C
00:22:20.014                             : en:C90Sec
00:23:50.037                             : en:C10Sec

Other Files in this Torrent
[NanakoRaws] Tengoku Daimakyou - 02v2 (1080p).mkv
beta
Anime DDL+NZB mirror
Current Time: 19/07/2024 17:33



About/FAQs

Discord