[NanakoRaws] Tengoku Daimakyou - 06v2 (1080p).mkv


File Size1.199 GB (1,287,510,967 bytes)
DownloadClickNUpload | GoFile | MdiaLoad
DailyUploads: Part1, Part2
DownloadGG: Part1, Part2
KrakenFiles: Part1, Part2
MultiUp: Part1
  • BdUpload
  • DownAce
  • Fichier
  • FileCloud
  • Filerio
  • FilesCdn
  • IndiShare
  • Kbagi
  • Turbobit
  • UpToBox
  • Uppit
, Part2
  • BdUpload
  • DownAce
  • Fichier
  • FileCloud
  • Filerio
  • FilesCdn
  • IndiShare
  • Kbagi
  • Turbobit
  • UpToBox
  • Uppit
, Part3
  • BdUpload
  • DownAce
  • Fichier
  • FileCloud
  • Filerio
  • FilesCdn
  • IndiShare
  • Kbagi
  • Turbobit
  • UpToBox
  • Uppit

Uppit: Part1, Part2
HashesCRC32: FDB0DD7B, MD5: BDD1E5574D579202105767A58E9770DA, SHA1: 2BDF3079E347736F75312E8A31503B0E16E8BB83, SHA256: E2EBD6547B9A414E729AF9D09E8E20F79BF7431160C116A55628D6ECB652C3A1, ED2K: C39B1E4C03B1524DE15EA58386C08160
Screenshots
screenshotscreenshotscreenshotscreenshotscreenshot
SubtitlesAll Attachments | jpn [SRT], eng [SRT]
Additional Info
General
Unique ID                                : 236028499056708907228074313645235359379 (0xB1916F76C8043049A1088DE17427CE93)
Complete name                            : [NanakoRaws] Tengoku Daimakyou - 06v2 (1080p).mkv
Format                                   : Matroska
Format version                           : Version 4
File size                                : 1.20 GiB
Duration                                 : 24 min 0 s
Overall bit rate                         : 7 153 kb/s
Frame rate                               : 23.976 FPS
Movie name                               : Encoded by DaddyPhantom
Encoded date                             : 2024-02-09 11:15:19 UTC
Writing application                      : mkvmerge v82.0 ('I'm The President') 64-bit
Writing library                          : libebml v1.4.5 + libmatroska v1.7.1

Video
ID                                       : 1
Format                                   : AVC
Format/Info                              : Advanced Video Codec
Format profile                           : High@L5.1
Format settings                          : CABAC / 16 Ref Frames
Format settings, CABAC                   : Yes
Format settings, Reference frames        : 16 frames
Codec ID                                 : V_MPEG4/ISO/AVC
Duration                                 : 24 min 0 s
Bit rate                                 : 6 898 kb/s
Width                                    : 1 920 pixels
Height                                   : 1 080 pixels
Display aspect ratio                     : 16:9
Frame rate mode                          : Constant
Frame rate                               : 23.976 (24000/1001) FPS
Color space                              : YUV
Chroma subsampling                       : 4:2:0
Bit depth                                : 8 bits
Scan type                                : Progressive
Bits/(Pixel*Frame)                       : 0.139
Stream size                              : 1.16 GiB (96%)
Title                                    : [NanakoRaws] Tengoku Daimakyou - 06 - 100% Safe Water
Language                                 : Japanese
Default                                  : Yes
Forced                                   : No
Color range                              : Limited
Color primaries                          : BT.709
Transfer characteristics                 : BT.709
Matrix coefficients                      : BT.709

Audio
ID                                       : 2
Format                                   : AAC LC
Format/Info                              : Advanced Audio Codec Low Complexity
Codec ID                                 : A_AAC-2
Duration                                 : 24 min 0 s
Bit rate                                 : 252 kb/s
Channel(s)                               : 2 channels
Channel layout                           : L R
Sampling rate                            : 48.0 kHz
Frame rate                               : 46.875 FPS (1024 SPF)
Compression mode                         : Lossy
Stream size                              : 43.3 MiB (4%)
Title                                    : [NanakoRaws] Japanese
Language                                 : Japanese
Default                                  : Yes
Forced                                   : No

Text #1
ID                                       : 3
Format                                   : UTF-8
Codec ID                                 : S_TEXT/UTF8
Codec ID/Info                            : UTF-8 Plain Text
Duration                                 : 23 min 48 s
Bit rate                                 : 79 b/s
Frame rate                               : 0.266 FPS
Count of elements                        : 380
Stream size                              : 13.8 KiB (0%)
Language                                 : Japanese
Default                                  : Yes
Forced                                   : No

Text #2
ID                                       : 4
Format                                   : UTF-8
Codec ID                                 : S_TEXT/UTF8
Codec ID/Info                            : UTF-8 Plain Text
Duration                                 : 23 min 14 s
Bit rate                                 : 57 b/s
Frame rate                               : 0.243 FPS
Count of elements                        : 339
Stream size                              : 9.76 KiB (0%)
Language                                 : English
Default                                  : Yes
Forced                                   : No

Menu
00:00:00.000                             : en:A90Sec
00:01:29.990                             : en:A10Sec
00:01:39.967                             : en:B
00:13:37.050                             : en:C
00:20:55.054                             : en:C90Sec
00:22:25.010                             : en:C
00:22:29.949                             : en:C
00:23:49.995                             : en:C10Sec

Other Files in this Torrent
[NanakoRaws] Tengoku Daimakyou - 06v2 (1080p).mkv
beta
Anime DDL+NZB mirror
Current Time: 14/07/2024 20:03



About/FAQs

Discord