[NanakoRaws] Tengoku Daimakyou - 07v2 (1080p).mkv


File Size1.077 GB (1,156,473,952 bytes)
DownloadClickNUpload | GoFile | MdiaLoad
DailyUploads: Part1, Part2
DownloadGG: Part1, Part2
KrakenFiles: Part1, Part2
MultiUp: Part1
  • BdUpload
  • DownAce
  • Fichier
  • FileCloud
  • Filerio
  • FilesCdn
  • IndiShare
  • Kbagi
  • Turbobit
  • UpToBox
  • Uppit
, Part2
  • BdUpload
  • DownAce
  • Fichier
  • FileCloud
  • Filerio
  • FilesCdn
  • IndiShare
  • Kbagi
  • Turbobit
  • UpToBox
  • Uppit
, Part3
  • BdUpload
  • DownAce
  • Fichier
  • FileCloud
  • Filerio
  • FilesCdn
  • IndiShare
  • Kbagi
  • Turbobit
  • UpToBox
  • Uppit

Uppit: Part1, Part2
HashesCRC32: E881D7AB, MD5: D04C00E6F040AC440A64B90A8581FC06, SHA1: A473CAAF73739A81F97913FD43916D2042C7C231, SHA256: CD28ABA54290D085DDEDB1CDF48E364D993C166C42CEAA8E28D0E77621789183, ED2K: 55D1F117326A682A2AFFAE11DFEB65B8
Screenshots
screenshotscreenshotscreenshotscreenshotscreenshot
SubtitlesAll Attachments | jpn [ASS], jpn [SRT], eng [SRT]
Additional Info
General
Unique ID                                : 318883781255173145464216472796401672353 (0xEFE6C84575C7CE860A8E49D327EEA0A1)
Complete name                            : [NanakoRaws] Tengoku Daimakyou - 07v2 (1080p).mkv
Format                                   : Matroska
Format version                           : Version 4
File size                                : 1.08 GiB
Duration                                 : 24 min 0 s
Overall bit rate                         : 6 424 kb/s
Frame rate                               : 23.976 FPS
Movie name                               : Encoded by DaddyPhantom
Encoded date                             : 2024-02-09 11:28:29 UTC
Writing application                      : mkvmerge v82.0 ('I'm The President') 64-bit
Writing library                          : libebml v1.4.5 + libmatroska v1.7.1

Video
ID                                       : 1
Format                                   : AVC
Format/Info                              : Advanced Video Codec
Format profile                           : High@L5.1
Format settings                          : CABAC / 16 Ref Frames
Format settings, CABAC                   : Yes
Format settings, Reference frames        : 16 frames
Codec ID                                 : V_MPEG4/ISO/AVC
Duration                                 : 24 min 0 s
Bit rate                                 : 6 169 kb/s
Width                                    : 1 920 pixels
Height                                   : 1 080 pixels
Display aspect ratio                     : 16:9
Frame rate mode                          : Constant
Frame rate                               : 23.976 (24000/1001) FPS
Color space                              : YUV
Chroma subsampling                       : 4:2:0
Bit depth                                : 8 bits
Scan type                                : Progressive
Bits/(Pixel*Frame)                       : 0.124
Stream size                              : 1.03 GiB (96%)
Title                                    : [NanakoRaws] Tengoku Daimakyou - 07 - The Immortal Order
Language                                 : Japanese
Default                                  : Yes
Forced                                   : No
Color range                              : Limited
Color primaries                          : BT.709
Transfer characteristics                 : BT.709
Matrix coefficients                      : BT.709

Audio
ID                                       : 2
Format                                   : AAC LC
Format/Info                              : Advanced Audio Codec Low Complexity
Codec ID                                 : A_AAC-2
Duration                                 : 24 min 0 s
Bit rate                                 : 252 kb/s
Channel(s)                               : 2 channels
Channel layout                           : L R
Sampling rate                            : 48.0 kHz
Frame rate                               : 46.875 FPS (1024 SPF)
Compression mode                         : Lossy
Stream size                              : 43.3 MiB (4%)
Title                                    : [NanakoRaws] Japanese
Language                                 : Japanese
Default                                  : Yes
Forced                                   : No

Text #1
ID                                       : 3
Format                                   : ASS
Codec ID                                 : S_TEXT/ASS
Codec ID/Info                            : Advanced Sub Station Alpha
Duration                                 : 20 min 14 s
Bit rate                                 : 251 b/s
Frame rate                               : 0.406 FPS
Count of elements                        : 493
Compression mode                         : Lossless
Stream size                              : 37.2 KiB (0%)
Language                                 : Japanese
Default                                  : Yes
Forced                                   : No

Text #2
ID                                       : 4
Format                                   : UTF-8
Codec ID                                 : S_TEXT/UTF8
Codec ID/Info                            : UTF-8 Plain Text
Duration                                 : 20 min 29 s
Bit rate                                 : 94 b/s
Frame rate                               : 0.291 FPS
Count of elements                        : 358
Stream size                              : 14.1 KiB (0%)
Language                                 : Japanese
Default                                  : Yes
Forced                                   : No

Text #3
ID                                       : 5
Format                                   : UTF-8
Codec ID                                 : S_TEXT/UTF8
Codec ID/Info                            : UTF-8 Plain Text
Duration                                 : 21 min 43 s
Bit rate                                 : 77 b/s
Frame rate                               : 0.295 FPS
Count of elements                        : 385
Stream size                              : 12.3 KiB (0%)
Language                                 : English
Default                                  : Yes
Forced                                   : No

Menu
00:00:00.000                             : en:A90Sec
00:01:30.023                             : en:A10Sec
00:01:40.000                             : en:B
00:11:42.101                             : en:C
00:22:20.072                             : en:C90Sec
00:23:50.095                             : en:C10Sec

Other Files in this Torrent
[NanakoRaws] Tengoku Daimakyou - 07v2 (1080p).mkv
beta
Anime DDL+NZB mirror
Current Time: 14/07/2024 19:55



About/FAQs

Discord