[NanakoRaws] Tengoku Daimakyou - 12v2 (1080p).mkv


File Size707.1 MB (741,488,211 bytes)
DownloadClickNUpload | DailyUploads | DownloadGG | GoFile | KrakenFiles | MdiaLoad | Uppit
MultiUp: Part1
  • BdUpload
  • DownAce
  • Fichier
  • FileCloud
  • Filerio
  • FilesCdn
  • IndiShare
  • Kbagi
  • Turbobit
  • UpToBox
  • Uppit
, Part2
  • BdUpload
  • DownAce
  • Fichier
  • FileCloud
  • Filerio
  • FilesCdn
  • IndiShare
  • Kbagi
  • Turbobit
  • UpToBox
  • Uppit
HashesCRC32: 70E5E786, MD5: 778A34C1EF4EC22E6C602FB31FB19BDB, SHA1: E51E9515744027ACFB64E9F15912B1A2E969A5CA, SHA256: 39EF5F305CF22D84289CA8292AE04790C42FE3C38C97DA77E4146ECC7E1F0670, ED2K: F1E3BD9205A281D11A47FFB933C231A4
Screenshots
screenshotscreenshotscreenshotscreenshotscreenshot
SubtitlesAll Attachments | jpn [SRT], eng [SRT]
Additional Info
General
Unique ID                                : 1799394478172047917760107733536706554 (0x15A8CFF4F76E3E2FD7FD9FD2D0F8FFA)
Complete name                            : [NanakoRaws] Tengoku Daimakyou - 12v2 (1080p).mkv
Format                                   : Matroska
Format version                           : Version 4
File size                                : 707 MiB
Duration                                 : 23 min 39 s
Overall bit rate                         : 4 178 kb/s
Frame rate                               : 23.976 FPS
Movie name                               : Encoded by DaddyPhantom
Encoded date                             : 2024-02-09 11:35:07 UTC
Writing application                      : mkvmerge v82.0 ('I'm The President') 64-bit
Writing library                          : libebml v1.4.5 + libmatroska v1.7.1 / GPAC-2.3-DEV-rev221-g200100727-ab-suite

Video
ID                                       : 1
Format                                   : AVC
Format/Info                              : Advanced Video Codec
Format profile                           : High@L5.2
Format settings                          : CABAC / 3 Ref Frames
Format settings, CABAC                   : Yes
Format settings, Reference frames        : 3 frames
Codec ID                                 : V_MPEG4/ISO/AVC
Duration                                 : 23 min 39 s
Bit rate                                 : 3 923 kb/s
Width                                    : 1 920 pixels
Height                                   : 1 080 pixels
Display aspect ratio                     : 16:9
Frame rate mode                          : Constant
Frame rate                               : 23.976 (24000/1001) FPS
Color space                              : YUV
Chroma subsampling                       : 4:2:0
Bit depth                                : 8 bits
Scan type                                : Progressive
Bits/(Pixel*Frame)                       : 0.079
Stream size                              : 664 MiB (94%)
Default                                  : Yes
Forced                                   : No
Color range                              : Limited
Color primaries                          : BT.709
Transfer characteristics                 : BT.709
Matrix coefficients                      : BT.709

Audio
ID                                       : 2
Format                                   : AAC LC
Format/Info                              : Advanced Audio Codec Low Complexity
Codec ID                                 : A_AAC-2
Duration                                 : 23 min 39 s
Bit rate                                 : 252 kb/s
Channel(s)                               : 2 channels
Channel layout                           : L R
Sampling rate                            : 48.0 kHz
Frame rate                               : 46.875 FPS (1024 SPF)
Compression mode                         : Lossy
Stream size                              : 42.7 MiB (6%)
Language                                 : Japanese
Default                                  : Yes
Forced                                   : No

Text #1
ID                                       : 3
Format                                   : UTF-8
Codec ID                                 : S_TEXT/UTF8
Codec ID/Info                            : UTF-8 Plain Text
Duration                                 : 23 min 35 s
Bit rate                                 : 77 b/s
Frame rate                               : 0.266 FPS
Count of elements                        : 377
Stream size                              : 13.3 KiB (0%)
Language                                 : Japanese
Default                                  : Yes
Forced                                   : No

Text #2
ID                                       : 4
Format                                   : UTF-8
Codec ID                                 : S_TEXT/UTF8
Codec ID/Info                            : UTF-8 Plain Text
Duration                                 : 22 min 8 s
Bit rate                                 : 69 b/s
Frame rate                               : 0.286 FPS
Count of elements                        : 380
Stream size                              : 11.3 KiB (0%)
Language                                 : English
Default                                  : Yes
Forced                                   : No

Menu
00:00:00.000                             : en:A
00:00:15.249                             : en:A
00:02:34.955                             : en:A90Sec
00:04:04.911                             : en:B
00:04:21.995                             : en:B
00:10:33.867                             : en:C
00:22:09.795                             : en:C90Sec
00:23:39.818                             : en:D3Sec

Other Files in this Torrent
[NanakoRaws] Tengoku Daimakyou - 12v2 (1080p).mkv
beta
Anime DDL+NZB mirror
Current Time: 14/07/2024 20:48



About/FAQs

Discord