[NanakoRaws] Tengoku Daimakyou - 04v2 (1080p).mkv


File Size503.2 MB (527,692,557 bytes)
DownloadClickNUpload | DailyUploads | DownloadGG | GoFile | KrakenFiles | MdiaLoad | Uppit
MultiUp: Part1
  • BdUpload
  • DownAce
  • Fichier
  • FileCloud
  • Filerio
  • FilesCdn
  • IndiShare
  • Kbagi
  • Turbobit
  • UpToBox
  • Uppit
, Part2
  • BdUpload
  • DownAce
  • Fichier
  • FileCloud
  • Filerio
  • FilesCdn
  • IndiShare
  • Kbagi
  • Turbobit
  • UpToBox
  • Uppit
HashesCRC32: 19418B06, MD5: 58DFF79C585AEFCA8F687D261477A4CC, SHA1: 4C8D534CA973F4124C20234446E0032B03C63322, SHA256: 11E30E912251EE226842969A61480F7EC28A0CA318416F5BE63BC6D9111C5A67, ED2K: B865636DC1A09BC44D5AC13F22947D11
Screenshots
screenshotscreenshotscreenshotscreenshotscreenshot
SubtitlesAll Attachments | jpn [ASS], jpn [SRT], eng [SRT]
Additional Info
General
Unique ID                                : 59287306415753265867605973207327574655 (0x2C9A51E350E1D588BF7842486A760A7F)
Complete name                            : [NanakoRaws] Tengoku Daimakyou - 04v2 (1080p).mkv
Format                                   : Matroska
Format version                           : Version 4
File size                                : 503 MiB
Duration                                 : 24 min 0 s
Overall bit rate                         : 2 931 kb/s
Frame rate                               : 23.976 FPS
Encoded date                             : 2024-02-09 11:11:33 UTC
Writing application                      : mkvmerge v82.0 ('I'm The President') 64-bit
Writing library                          : libebml v1.4.5 + libmatroska v1.7.1

Video
ID                                       : 1
Format                                   : AVC
Format/Info                              : Advanced Video Codec
Format profile                           : High 10@L4
Format settings                          : CABAC / 4 Ref Frames
Format settings, CABAC                   : Yes
Format settings, Reference frames        : 4 frames
Codec ID                                 : V_MPEG4/ISO/AVC
Duration                                 : 24 min 0 s
Bit rate                                 : 2 676 kb/s
Width                                    : 1 920 pixels
Height                                   : 1 080 pixels
Display aspect ratio                     : 16:9
Frame rate mode                          : Constant
Frame rate                               : 23.976 (24000/1001) FPS
Color space                              : YUV
Chroma subsampling                       : 4:2:0
Bit depth                                : 10 bits
Scan type                                : Progressive
Bits/(Pixel*Frame)                       : 0.054
Stream size                              : 459 MiB (91%)
Writing library                          : x264 core 164 r3094+13 7816202 [Mod by Patman]
Encoding settings                        : cabac=1 / ref=1 / deblock=1:0:0 / analyse=0x3:0x113 / me=hex / subme=2 / psy=1 / psy_rd=1.00:0.00 / mixed_ref=0 / me_range=16 / chroma_me=1 / trellis=0 / 8x8dct=1 / cqm=0 / deadzone=21,11 / fast_pskip=1 / chroma_qp_offset=0 / threads=12 / lookahead_threads=4 / sliced_threads=0 / nr=0 / decimate=1 / interlaced=0 / bluray_compat=0 / stitchable=1 / constrained_intra=0 / bframes=3 / b_pyramid=2 / b_adapt=1 / b_bias=0 / direct=1 / weightb=1 / open_gop=0 / weightp=1 / keyint=250 / keyint_min=23 / scenecut=40 / intra_refresh=0 / rc_lookahead=10 / rc=crf / mbtree=1 / crf=20.5 / qcomp=0.60 / qpmin=0 / qpmax=81 / qpstep=4 / ip_ratio=1.40 / aq=1:1.00
Language                                 : Japanese
Default                                  : Yes
Forced                                   : No
Color range                              : Limited
Color primaries                          : BT.709
Transfer characteristics                 : BT.709
Matrix coefficients                      : BT.709

Audio
ID                                       : 2
Format                                   : AAC LC
Format/Info                              : Advanced Audio Codec Low Complexity
Codec ID                                 : A_AAC-2
Duration                                 : 24 min 0 s
Bit rate                                 : 252 kb/s
Channel(s)                               : 2 channels
Channel layout                           : L R
Sampling rate                            : 48.0 kHz
Frame rate                               : 46.875 FPS (1024 SPF)
Compression mode                         : Lossy
Stream size                              : 43.3 MiB (9%)
Language                                 : Japanese
Default                                  : Yes
Forced                                   : No

Text #1
ID                                       : 3
Format                                   : ASS
Codec ID                                 : S_TEXT/ASS
Codec ID/Info                            : Advanced Sub Station Alpha
Duration                                 : 22 min 12 s
Bit rate                                 : 201 b/s
Frame rate                               : 0.381 FPS
Count of elements                        : 508
Compression mode                         : Lossless
Stream size                              : 32.8 KiB (0%)
Language                                 : Japanese
Default                                  : Yes
Forced                                   : No

Text #2
ID                                       : 4
Format                                   : UTF-8
Codec ID                                 : S_TEXT/UTF8
Codec ID/Info                            : UTF-8 Plain Text
Duration                                 : 22 min 12 s
Bit rate                                 : 80 b/s
Frame rate                               : 0.276 FPS
Count of elements                        : 368
Stream size                              : 13.1 KiB (0%)
Language                                 : Japanese
Default                                  : Yes
Forced                                   : No

Text #3
ID                                       : 5
Format                                   : UTF-8
Codec ID                                 : S_TEXT/UTF8
Codec ID/Info                            : UTF-8 Plain Text
Duration                                 : 22 min 16 s
Bit rate                                 : 60 b/s
Frame rate                               : 0.281 FPS
Count of elements                        : 375
Stream size                              : 9.84 KiB (0%)
Language                                 : English
Default                                  : Yes
Forced                                   : No

Menu
00:00:00.000                             : en:A
00:00:40.007                             : en:A90Sec
00:02:09.963                             : en:A10Sec
00:02:19.973                             : en:B
00:10:44.077                             : en:C
00:22:20.005                             : en:C90Sec
00:23:50.029                             : en:C10Sec

Other Files in this Torrent
[NanakoRaws] Tengoku Daimakyou - 04v2 (1080p).mkv
beta
Anime DDL+NZB mirror
Current Time: 14/07/2024 19:35



About/FAQs

Discord