[NanakoRaws] Tengoku Daimakyou - 10v2 (1080p).mkv


File Size819.0 MB (858,813,383 bytes)
DownloadClickNUpload | DailyUploads | DownloadGG | GoFile | KrakenFiles | MdiaLoad | Uppit
MultiUp: Part1
  • BdUpload
  • DownAce
  • Fichier
  • FileCloud
  • Filerio
  • FilesCdn
  • IndiShare
  • Kbagi
  • Turbobit
  • UpToBox
  • Uppit
, Part2
  • BdUpload
  • DownAce
  • Fichier
  • FileCloud
  • Filerio
  • FilesCdn
  • IndiShare
  • Kbagi
  • Turbobit
  • UpToBox
  • Uppit
HashesCRC32: B68E6DEC, MD5: D6FB102065BD0C88383DD6D7FA23B81F, SHA1: 15E7008BD5E218346F4385AFD8B3099488D1D7B5, SHA256: F147BC771A8FBEF65F08DC8420778B9D2D046E44A7350CC8DB590D2F389DBFC9, ED2K: E0A0B38922C5EB52515FC7CC3DEBFC69
Screenshots
screenshotscreenshotscreenshotscreenshotscreenshot
SubtitlesAll Attachments | jpn [ASS], jpn [SRT], eng [SRT]
Additional Info
General
Unique ID                                : 57038375630991757332490066314244363101 (0x2AE9310A1F2172C092122DC4B4BB935D)
Complete name                            : [NanakoRaws] Tengoku Daimakyou - 10v2 (1080p).mkv
Format                                   : Matroska
Format version                           : Version 4
File size                                : 819 MiB
Duration                                 : 24 min 0 s
Overall bit rate                         : 4 771 kb/s
Frame rate                               : 23.976 FPS
Movie name                               : Encoded by DaddyPhantom
Encoded date                             : 2024-02-09 11:31:43 UTC
Writing application                      : mkvmerge v82.0 ('I'm The President') 64-bit
Writing library                          : libebml v1.4.5 + libmatroska v1.7.1 / GPAC-2.1-DEV-rev368-gfd054169b-master

Video
ID                                       : 1
Format                                   : AVC
Format/Info                              : Advanced Video Codec
Format profile                           : High@L5.2
Format settings                          : CABAC / 3 Ref Frames
Format settings, CABAC                   : Yes
Format settings, Reference frames        : 3 frames
Codec ID                                 : V_MPEG4/ISO/AVC
Duration                                 : 23 min 59 s
Bit rate                                 : 4 516 kb/s
Width                                    : 1 920 pixels
Height                                   : 1 080 pixels
Display aspect ratio                     : 16:9
Frame rate mode                          : Constant
Frame rate                               : 23.976 (24000/1001) FPS
Color space                              : YUV
Chroma subsampling                       : 4:2:0
Bit depth                                : 8 bits
Scan type                                : Progressive
Bits/(Pixel*Frame)                       : 0.091
Stream size                              : 775 MiB (95%)
Language                                 : Japanese
Default                                  : Yes
Forced                                   : No
Color range                              : Limited
Color primaries                          : BT.709
Transfer characteristics                 : BT.709
Matrix coefficients                      : BT.709

Audio
ID                                       : 2
Format                                   : AAC LC
Format/Info                              : Advanced Audio Codec Low Complexity
Codec ID                                 : A_AAC-2
Duration                                 : 24 min 0 s
Bit rate                                 : 252 kb/s
Channel(s)                               : 2 channels
Channel layout                           : L R
Sampling rate                            : 48.0 kHz
Frame rate                               : 46.875 FPS (1024 SPF)
Compression mode                         : Lossy
Stream size                              : 43.3 MiB (5%)
Language                                 : Japanese
Default                                  : Yes
Forced                                   : No

Text #1
ID                                       : 3
Format                                   : ASS
Codec ID                                 : S_TEXT/ASS
Codec ID/Info                            : Advanced Sub Station Alpha
Duration                                 : 22 min 8 s
Bit rate                                 : 302 b/s
Frame rate                               : 0.394 FPS
Count of elements                        : 523
Compression mode                         : Lossless
Stream size                              : 49.1 KiB (0%)
Language                                 : Japanese
Default                                  : Yes
Forced                                   : No

Text #2
ID                                       : 4
Format                                   : UTF-8
Codec ID                                 : S_TEXT/UTF8
Codec ID/Info                            : UTF-8 Plain Text
Duration                                 : 22 min 8 s
Bit rate                                 : 97 b/s
Frame rate                               : 0.286 FPS
Count of elements                        : 380
Stream size                              : 15.7 KiB (0%)
Language                                 : Japanese
Default                                  : Yes
Forced                                   : No

Text #3
ID                                       : 5
Format                                   : UTF-8
Codec ID                                 : S_TEXT/UTF8
Codec ID/Info                            : UTF-8 Plain Text
Duration                                 : 22 min 9 s
Bit rate                                 : 69 b/s
Frame rate                               : 0.311 FPS
Count of elements                        : 413
Stream size                              : 11.2 KiB (0%)
Language                                 : English
Default                                  : Yes
Forced                                   : No

Menu
00:00:00.000                             : en:A10Sec
00:00:10.010                             : en:A
00:09:44.984                             : en:B
00:22:20.005                             : en:B90Sec
00:23:49.995                             : en:C10Sec

Other Files in this Torrent
[NanakoRaws] Tengoku Daimakyou - 10v2 (1080p).mkv
beta
Anime DDL+NZB mirror
Current Time: 19/07/2024 18:09



About/FAQs

Discord