[NanakoRaws] Tengoku Daimakyou - 01v2 (1080p).mkv


File Size752.9 MB (789,521,042 bytes)
DownloadClickNUpload | DailyUploads | DownloadGG | GoFile | KrakenFiles | MdiaLoad | Uppit
MultiUp: Part1
  • BdUpload
  • DownAce
  • Fichier
  • FileCloud
  • Filerio
  • FilesCdn
  • IndiShare
  • Kbagi
  • Turbobit
  • UpToBox
  • Uppit
, Part2
  • BdUpload
  • DownAce
  • Fichier
  • FileCloud
  • Filerio
  • FilesCdn
  • IndiShare
  • Kbagi
  • Turbobit
  • UpToBox
  • Uppit
HashesCRC32: 4BB27024, MD5: BEEE1EE2EB7E028D3C025162F5657830, SHA1: 6325CD98903238474A94AD30A20995838D585A62, SHA256: 91E886C2EF1629D6639980C5992D92114389BAEBB78486A413382F679CFC8184, ED2K: F3DFDFEC23AF72807283CD5936C77726
Screenshots
screenshotscreenshotscreenshotscreenshotscreenshot
SubtitlesAll Attachments | jpn [SRT], eng [SRT]
Additional Info
General
Unique ID                                : 302463063944942019281615207952498047387 (0xE38C4466B662B80365A8E4DB8048399B)
Complete name                            : [NanakoRaws] Tengoku Daimakyou - 01v2 (1080p).mkv
Format                                   : Matroska
Format version                           : Version 4
File size                                : 753 MiB
Duration                                 : 23 min 50 s
Overall bit rate                         : 4 417 kb/s
Frame rate                               : 23.976 FPS
Encoded date                             : 2024-02-09 11:06:12 UTC
Writing application                      : mkvmerge v82.0 ('I'm The President') 64-bit
Writing library                          : libebml v1.4.5 + libmatroska v1.7.1

Video
ID                                       : 1
Format                                   : AVC
Format/Info                              : Advanced Video Codec
Format profile                           : High@L4
Format settings                          : CABAC / 4 Ref Frames
Format settings, CABAC                   : Yes
Format settings, Reference frames        : 4 frames
Codec ID                                 : V_MPEG4/ISO/AVC
Duration                                 : 23 min 49 s
Bit rate                                 : 4 223 kb/s
Width                                    : 1 920 pixels
Height                                   : 1 080 pixels
Display aspect ratio                     : 16:9
Frame rate mode                          : Constant
Frame rate                               : 23.976 (24000/1001) FPS
Color space                              : YUV
Chroma subsampling                       : 4:2:0
Bit depth                                : 8 bits
Scan type                                : Progressive
Bits/(Pixel*Frame)                       : 0.085
Stream size                              : 720 MiB (96%)
Language                                 : Japanese
Default                                  : Yes
Forced                                   : No

Audio
ID                                       : 2
Format                                   : AAC LC
Format/Info                              : Advanced Audio Codec Low Complexity
Codec ID                                 : A_AAC-2
Duration                                 : 23 min 50 s
Bit rate                                 : 192 kb/s
Channel(s)                               : 2 channels
Channel layout                           : L R
Sampling rate                            : 48.0 kHz
Frame rate                               : 46.875 FPS (1024 SPF)
Compression mode                         : Lossy
Stream size                              : 32.7 MiB (4%)
Language                                 : Japanese
Default                                  : Yes
Forced                                   : No

Text #1
ID                                       : 3
Format                                   : UTF-8
Codec ID                                 : S_TEXT/UTF8
Codec ID/Info                            : UTF-8 Plain Text
Duration                                 : 23 min 45 s
Bit rate                                 : 91 b/s
Frame rate                               : 0.300 FPS
Count of elements                        : 428
Stream size                              : 15.9 KiB (0%)
Language                                 : Japanese
Default                                  : Yes
Forced                                   : No

Text #2
ID                                       : 4
Format                                   : UTF-8
Codec ID                                 : S_TEXT/UTF8
Codec ID/Info                            : UTF-8 Plain Text
Duration                                 : 22 min 16 s
Bit rate                                 : 76 b/s
Frame rate                               : 0.302 FPS
Count of elements                        : 404
Stream size                              : 12.5 KiB (0%)
Language                                 : English
Default                                  : Yes
Forced                                   : No

Other Files in this Torrent
[NanakoRaws] Tengoku Daimakyou - 01v2 (1080p).mkv
beta
Anime DDL+NZB mirror
Current Time: 19/07/2024 19:06



About/FAQs

Discord