[NanakoRaws] Tengoku Daimakyou - 08v2 (1080p).mkv


File Size0.985 GB (1,057,256,782 bytes)
DownloadClickNUpload | DailyUploads | DownloadGG | GoFile | KrakenFiles | MdiaLoad | Uppit
MultiUp: Part1
  • BdUpload
  • DownAce
  • Fichier
  • FileCloud
  • Filerio
  • FilesCdn
  • IndiShare
  • Kbagi
  • Turbobit
  • UpToBox
  • Uppit
, Part2
  • BdUpload
  • DownAce
  • Fichier
  • FileCloud
  • Filerio
  • FilesCdn
  • IndiShare
  • Kbagi
  • Turbobit
  • UpToBox
  • Uppit
, Part3
  • BdUpload
  • DownAce
  • Fichier
  • FileCloud
  • Filerio
  • FilesCdn
  • IndiShare
  • Kbagi
  • Turbobit
  • UpToBox
  • Uppit
HashesCRC32: 3840063B, MD5: 254C67B3248332AAFA6F666515B9AA66, SHA1: 70823CD8925AC330874BCE81C301CF5110508D86, SHA256: 3270A2F22ADEBCB17B4E18B7C85F215F045C28A883007432EEB5911422E3390D, ED2K: 91EC932E8A12FF3D91B4C9CCE0B46D58
Screenshots
screenshotscreenshotscreenshotscreenshotscreenshot
SubtitlesAll Attachments | jpn [ASS], jpn [SRT], eng [SRT]
Additional Info
General
Unique ID                                : 221662537721223889866148939936335706085 (0xA6C2A6E290CC949868861F887F10B7E5)
Complete name                            : [NanakoRaws] Tengoku Daimakyou - 08v2 (1080p).mkv
Format                                   : Matroska
Format version                           : Version 4
File size                                : 1 008 MiB
Duration                                 : 24 min 0 s
Overall bit rate                         : 5 874 kb/s
Frame rate                               : 23.976 FPS
Movie name                               : Encoded by DaddyPhantom
Encoded date                             : 2024-02-09 11:29:40 UTC
Writing application                      : mkvmerge v82.0 ('I'm The President') 64-bit
Writing library                          : libebml v1.4.5 + libmatroska v1.7.1

Video
ID                                       : 1
Format                                   : AVC
Format/Info                              : Advanced Video Codec
Format profile                           : High@L5.1
Format settings                          : CABAC / 16 Ref Frames
Format settings, CABAC                   : Yes
Format settings, Reference frames        : 16 frames
Codec ID                                 : V_MPEG4/ISO/AVC
Duration                                 : 23 min 59 s
Bit rate                                 : 5 619 kb/s
Width                                    : 1 920 pixels
Height                                   : 1 080 pixels
Display aspect ratio                     : 16:9
Frame rate mode                          : Constant
Frame rate                               : 23.976 (24000/1001) FPS
Color space                              : YUV
Chroma subsampling                       : 4:2:0
Bit depth                                : 8 bits
Scan type                                : Progressive
Bits/(Pixel*Frame)                       : 0.113
Stream size                              : 964 MiB (96%)
Title                                    : [NanakoRaws] Tengoku Daimakyou - 08 - Their Choices
Language                                 : Japanese
Default                                  : Yes
Forced                                   : No
Color range                              : Limited
Color primaries                          : BT.709
Transfer characteristics                 : BT.709
Matrix coefficients                      : BT.709

Audio
ID                                       : 2
Format                                   : AAC LC
Format/Info                              : Advanced Audio Codec Low Complexity
Codec ID                                 : A_AAC-2
Duration                                 : 24 min 0 s
Bit rate                                 : 252 kb/s
Channel(s)                               : 2 channels
Channel layout                           : L R
Sampling rate                            : 48.0 kHz
Frame rate                               : 46.875 FPS (1024 SPF)
Compression mode                         : Lossy
Stream size                              : 43.3 MiB (4%)
Title                                    : [NanakoRaws] Japanese
Language                                 : Japanese
Default                                  : Yes
Forced                                   : No

Text #1
ID                                       : 3
Format                                   : ASS
Codec ID                                 : S_TEXT/ASS
Codec ID/Info                            : Advanced Sub Station Alpha
Duration                                 : 22 min 8 s
Bit rate                                 : 142 b/s
Frame rate                               : 0.269 FPS
Count of elements                        : 357
Compression mode                         : Lossless
Stream size                              : 23.2 KiB (0%)
Language                                 : Japanese
Default                                  : Yes
Forced                                   : No

Text #2
ID                                       : 4
Format                                   : UTF-8
Codec ID                                 : S_TEXT/UTF8
Codec ID/Info                            : UTF-8 Plain Text
Duration                                 : 22 min 8 s
Bit rate                                 : 58 b/s
Frame rate                               : 0.218 FPS
Count of elements                        : 290
Stream size                              : 9.52 KiB (0%)
Language                                 : Japanese
Default                                  : Yes
Forced                                   : No

Text #3
ID                                       : 5
Format                                   : UTF-8
Codec ID                                 : S_TEXT/UTF8
Codec ID/Info                            : UTF-8 Plain Text
Duration                                 : 23 min 13 s
Bit rate                                 : 45 b/s
Frame rate                               : 0.207 FPS
Count of elements                        : 289
Stream size                              : 7.74 KiB (0%)
Language                                 : English
Default                                  : Yes
Forced                                   : No

Menu
00:00:00.000                             : en:A90Sec
00:01:30.023                             : en:A10Sec
00:01:40.000                             : en:B
00:07:00.987                             : en:C
00:23:49.995                             : en:C10Sec

Other Files in this Torrent
[NanakoRaws] Tengoku Daimakyou - 08v2 (1080p).mkv
beta
Anime DDL+NZB mirror
Current Time: 19/07/2024 17:59



About/FAQs

Discord