[NanakoRaws] Tengoku Daimakyou - 03v2 (1080p).mkv


File Size654.0 MB (685,735,495 bytes)
DownloadClickNUpload | DailyUploads | DownloadGG | GoFile | KrakenFiles | MdiaLoad | Uppit
MultiUp: Part1
  • BdUpload
  • DownAce
  • Fichier
  • FileCloud
  • Filerio
  • FilesCdn
  • IndiShare
  • Kbagi
  • Turbobit
  • UpToBox
  • Uppit
, Part2
  • BdUpload
  • DownAce
  • Fichier
  • FileCloud
  • Filerio
  • FilesCdn
  • IndiShare
  • Kbagi
  • Turbobit
  • UpToBox
  • Uppit
HashesCRC32: 6A35016D, MD5: 2567F6D0FB517C4D86185A91794B80BC, SHA1: 8B114D0C279C0309BCE0651682F2BD40558F0267, SHA256: 9061E4BD7164F6D232EB70F47F48EE9F369C948632601894E7D30377D98A3C0D, ED2K: 8768EF26663BA232EE47BADC463064B6
Screenshots
screenshotscreenshotscreenshotscreenshotscreenshot
SubtitlesAll Attachments | ASS [jpn, ASS], SRT [jpn, SRT], eng [SRT]
Additional Info
General
Unique ID                                : 45556169123224427766451073726918374996 (0x2245CC8D01D61B9CAD98BC1FF6933654)
Complete name                            : [NanakoRaws] Tengoku Daimakyou - 03v2 (1080p).mkv
Format                                   : Matroska
Format version                           : Version 4
File size                                : 654 MiB
Duration                                 : 24 min 0 s
Overall bit rate                         : 3 809 kb/s
Frame rate                               : 23.976 FPS
Encoded date                             : 2024-02-09 11:09:35 UTC
Writing application                      : mkvmerge v82.0 ('I'm The President') 64-bit
Writing library                          : libebml v1.4.5 + libmatroska v1.7.1

Video
ID                                       : 1
Format                                   : AVC
Format/Info                              : Advanced Video Codec
Format profile                           : High 10@L4
Format settings                          : CABAC / 4 Ref Frames
Format settings, CABAC                   : Yes
Format settings, Reference frames        : 4 frames
Codec ID                                 : V_MPEG4/ISO/AVC
Duration                                 : 24 min 0 s
Bit rate                                 : 3 554 kb/s
Width                                    : 1 920 pixels
Height                                   : 1 080 pixels
Display aspect ratio                     : 16:9
Frame rate mode                          : Constant
Frame rate                               : 23.976 (24000/1001) FPS
Color space                              : YUV
Chroma subsampling                       : 4:2:0
Bit depth                                : 10 bits
Scan type                                : Progressive
Bits/(Pixel*Frame)                       : 0.071
Stream size                              : 610 MiB (93%)
Writing library                          : x264 core 164 r3094+13 7816202 [Mod by Patman]
Encoding settings                        : cabac=1 / ref=1 / deblock=1:0:0 / analyse=0x3:0x113 / me=hex / subme=2 / psy=1 / psy_rd=1.00:0.00 / mixed_ref=0 / me_range=16 / chroma_me=1 / trellis=0 / 8x8dct=1 / cqm=0 / deadzone=21,11 / fast_pskip=1 / chroma_qp_offset=0 / threads=12 / lookahead_threads=4 / sliced_threads=0 / nr=0 / decimate=1 / interlaced=0 / bluray_compat=0 / stitchable=1 / constrained_intra=0 / bframes=3 / b_pyramid=2 / b_adapt=1 / b_bias=0 / direct=1 / weightb=1 / open_gop=0 / weightp=1 / keyint=250 / keyint_min=23 / scenecut=40 / intra_refresh=0 / rc_lookahead=10 / rc=crf / mbtree=1 / crf=20.5 / qcomp=0.60 / qpmin=0 / qpmax=81 / qpstep=4 / ip_ratio=1.40 / aq=1:1.00
Language                                 : Japanese
Default                                  : Yes
Forced                                   : No
Color range                              : Limited
Color primaries                          : BT.709
Transfer characteristics                 : BT.709
Matrix coefficients                      : BT.709

Audio
ID                                       : 2
Format                                   : AAC LC
Format/Info                              : Advanced Audio Codec Low Complexity
Codec ID                                 : A_AAC-2
Duration                                 : 24 min 0 s
Bit rate                                 : 252 kb/s
Channel(s)                               : 2 channels
Channel layout                           : L R
Sampling rate                            : 48.0 kHz
Frame rate                               : 46.875 FPS (1024 SPF)
Compression mode                         : Lossy
Stream size                              : 43.3 MiB (7%)
Language                                 : Japanese
Default                                  : Yes
Forced                                   : No

Text #1
ID                                       : 3
Format                                   : ASS
Codec ID                                 : S_TEXT/ASS
Codec ID/Info                            : Advanced Sub Station Alpha
Duration                                 : 23 min 44 s
Bit rate                                 : 229 b/s
Frame rate                               : 0.312 FPS
Count of elements                        : 445
Compression mode                         : Lossless
Stream size                              : 39.8 KiB (0%)
Title                                    : ASS
Language                                 : Japanese
Default                                  : Yes
Forced                                   : No

Text #2
ID                                       : 4
Format                                   : UTF-8
Codec ID                                 : S_TEXT/UTF8
Codec ID/Info                            : UTF-8 Plain Text
Duration                                 : 23 min 44 s
Bit rate                                 : 71 b/s
Frame rate                               : 0.232 FPS
Count of elements                        : 331
Stream size                              : 12.4 KiB (0%)
Title                                    : SRT
Language                                 : Japanese
Default                                  : Yes
Forced                                   : No

Text #3
ID                                       : 5
Format                                   : UTF-8
Codec ID                                 : S_TEXT/UTF8
Codec ID/Info                            : UTF-8 Plain Text
Duration                                 : 23 min 48 s
Bit rate                                 : 58 b/s
Frame rate                               : 0.239 FPS
Count of elements                        : 341
Stream size                              : 10.2 KiB (0%)
Language                                 : English
Default                                  : Yes
Forced                                   : No

Menu
00:00:00.000                             : en:A
00:01:30.991                             : en:A90Sec
00:03:00.947                             : en:A10Sec
00:03:10.991                             : en:B
00:11:50.977                             : en:C
00:12:00.019                             : en:C
00:21:23.015                             : en:C90Sec
00:22:53.038                             : en:C
00:23:50.029                             : en:C10Sec

Other Files in this Torrent
[NanakoRaws] Tengoku Daimakyou - 03v2 (1080p).mkv
beta
Anime DDL+NZB mirror
Current Time: 14/07/2024 19:41



About/FAQs

Discord