[NanakoRaws] Tengoku Daimakyou - 11v2 (1080p).mkv


File Size864.3 MB (906,297,547 bytes)
DownloadClickNUpload | DailyUploads | DownloadGG | GoFile | KrakenFiles | MdiaLoad | Uppit
MultiUp: Part1
  • BdUpload
  • DownAce
  • Fichier
  • FileCloud
  • Filerio
  • FilesCdn
  • IndiShare
  • Kbagi
  • Turbobit
  • UpToBox
  • Uppit
, Part2
  • BdUpload
  • DownAce
  • Fichier
  • FileCloud
  • Filerio
  • FilesCdn
  • IndiShare
  • Kbagi
  • Turbobit
  • UpToBox
  • Uppit
HashesCRC32: 7755EBA4, MD5: 1F3ED0D7294223725D360766ADC61C31, SHA1: 1F42905C1818347F2481A2FDF0F76E1CAD5C1750, SHA256: A8E55A447511F2D5B6C0993A92447572EE4AF0D35EBFC5B88B03A24051BC15B3, ED2K: BB44C55F5F7C40D27BC3696E8A0EC6D6
Screenshots
screenshotscreenshotscreenshotscreenshotscreenshot
SubtitlesAll Attachments | jpn [SRT], eng [SRT]
Additional Info
General
Unique ID                                : 50837930485505915846429010274890576150 (0x263F077DCC3905E94D194074F3307116)
Complete name                            : [NanakoRaws] Tengoku Daimakyou - 11v2 (1080p).mkv
Format                                   : Matroska
Format version                           : Version 4
File size                                : 864 MiB
Duration                                 : 23 min 59 s
Overall bit rate                         : 5 035 kb/s
Frame rate                               : 23.976 FPS
Movie name                               : Encoded by DaddyPhantom
Encoded date                             : 2024-02-09 11:32:38 UTC
Writing application                      : mkvmerge v82.0 ('I'm The President') 64-bit
Writing library                          : libebml v1.4.5 + libmatroska v1.7.1 / GPAC-2.1-DEV-rev368-gfd054169b-master

Video
ID                                       : 1
Format                                   : AVC
Format/Info                              : Advanced Video Codec
Format profile                           : High@L5.2
Format settings                          : CABAC / 3 Ref Frames
Format settings, CABAC                   : Yes
Format settings, Reference frames        : 3 frames
Codec ID                                 : V_MPEG4/ISO/AVC
Duration                                 : 23 min 59 s
Bit rate                                 : 4 780 kb/s
Width                                    : 1 920 pixels
Height                                   : 1 080 pixels
Display aspect ratio                     : 16:9
Frame rate mode                          : Constant
Frame rate                               : 23.976 (24000/1001) FPS
Color space                              : YUV
Chroma subsampling                       : 4:2:0
Bit depth                                : 8 bits
Scan type                                : Progressive
Bits/(Pixel*Frame)                       : 0.096
Stream size                              : 821 MiB (95%)
Language                                 : Japanese
Default                                  : Yes
Forced                                   : No
Color range                              : Limited
Color primaries                          : BT.709
Transfer characteristics                 : BT.709
Matrix coefficients                      : BT.709

Audio
ID                                       : 2
Format                                   : AAC LC
Format/Info                              : Advanced Audio Codec Low Complexity
Codec ID                                 : A_AAC-2
Duration                                 : 23 min 59 s
Bit rate                                 : 252 kb/s
Channel(s)                               : 2 channels
Channel layout                           : L R
Sampling rate                            : 48.0 kHz
Frame rate                               : 46.875 FPS (1024 SPF)
Compression mode                         : Lossy
Stream size                              : 43.3 MiB (5%)
Language                                 : Japanese
Default                                  : Yes
Forced                                   : No

Text #1
ID                                       : 3
Format                                   : UTF-8
Codec ID                                 : S_TEXT/UTF8
Codec ID/Info                            : UTF-8 Plain Text
Duration                                 : 23 min 46 s
Bit rate                                 : 82 b/s
Frame rate                               : 0.266 FPS
Count of elements                        : 380
Stream size                              : 14.3 KiB (0%)
Language                                 : Japanese
Default                                  : Yes
Forced                                   : No

Text #2
ID                                       : 4
Format                                   : UTF-8
Codec ID                                 : S_TEXT/UTF8
Codec ID/Info                            : UTF-8 Plain Text
Duration                                 : 22 min 19 s
Bit rate                                 : 72 b/s
Frame rate                               : 0.272 FPS
Count of elements                        : 364
Stream size                              : 11.8 KiB (0%)
Language                                 : English
Default                                  : Yes
Forced                                   : No

Menu
00:00:00.000                             : en:A
00:01:12.005                             : en:A90Sec
00:02:42.029                             : en:A10Sec
00:02:52.005                             : en:B
00:10:39.973                             : en:C
00:22:19.905                             : en:C90Sec
00:23:49.928                             : en:C10Sec

Other Files in this Torrent
[NanakoRaws] Tengoku Daimakyou - 11v2 (1080p).mkv
beta
Anime DDL+NZB mirror
Current Time: 14/07/2024 20:19



About/FAQs

Discord