[VON] Tokyo Ghoul - 11 [1080p][MP4].mp4


File Size407.3 MB (427,070,542 bytes)
DownloadGo4Up | Jheberg | MultiUp
  • ClickNupload
  • Fichier
  • Filerio
  • Free
  • Fufox
  • HugeFiles
  • Mightyupload
  • ToutBox
  • Turbobit
  • UpToBox
  • Uplea
  • UploadBaz
  • Uploadable
  • Uploaded
  • Uppit
| SolidFiles
Sendspace: Part1, Part2
HashesCRC32: 38487885, MD5: 5D2AC1418FD14D68232C2602C1E62FAD, SHA1: A70490B819D6438DAA7D490164630A679814BAAE, SHA256: 073C0260508FEA1C9ACFC83203256026BD64DF01B4DB15D02B24624448854D51, ED2K: 52F34497F597A14FFDAECE99F557E064
Screenshots
screenshotscreenshotscreenshotscreenshotscreenshot
Additional Info
General
Complete name                            : [VON] Tokyo Ghoul - 11 [1080p][MP4].mp4
Format                                   : MPEG-4
Format profile                           : Base Media / Version 2
Codec ID                                 : mp42
File size                                : 407 MiB
Duration                                 : 24mn 7s
Overall bit rate mode                    : Variable
Overall bit rate                         : 2 361 Kbps
Encoded date                             : UTC 2015-10-14 23:27:22
Tagged date                              : UTC 2015-10-14 23:27:22
gsst                                     : 0
gstd                                     : 1447160
gssd                                     : B4A7DD881
gshh                                     : r1---sn-cg07lue6.c.docs.google.com

Video
ID                                       : 1
Format                                   : AVC
Format/Info                              : Advanced Video Codec
Format profile                           : High@L4.0
Format settings, CABAC                   : Yes
Format settings, ReFrames                : 1 frame
Codec ID                                 : avc1
Codec ID/Info                            : Advanced Video Coding
Duration                                 : 24mn 7s
Bit rate                                 : 2 167 Kbps
Maximum bit rate                         : 16.6 Mbps
Width                                    : 1 920 pixels
Height                                   : 1 080 pixels
Display aspect ratio                     : 16:9
Frame rate mode                          : Constant
Frame rate                               : 23.976 fps
Color space                              : YUV
Chroma subsampling                       : 4:2:0
Bit depth                                : 8 bits
Scan type                                : Progressive
Bits/(Pixel*Frame)                       : 0.044
Stream size                              : 374 MiB (92%)
Encoded date                             : UTC 1904-01-01 00:00:00
Tagged date                              : UTC 2015-10-14 23:28:30

Audio
ID                                       : 2
Format                                   : AAC
Format/Info                              : Advanced Audio Codec
Format profile                           : LC
Codec ID                                 : 40
Duration                                 : 24mn 7s
Bit rate mode                            : Variable
Bit rate                                 : 192 Kbps
Maximum bit rate                         : 201 Kbps
Channel(s)                               : 2 channels
Channel positions                        : Front: L R
Sampling rate                            : 44.1 KHz
Compression mode                         : Lossy
Stream size                              : 33.1 MiB (8%)
Title                                    : IsoMedia File Produced by Google, 5-11-2011
Encoded date                             : UTC 2015-10-14 23:28:04
Tagged date                              : UTC 2015-10-14 23:28:30

Other Files in this Torrent
[VON] Tokyo Ghoul - 11 [1080p][MP4].mp4
beta
Anime DDL+NZB mirror
Current Time: 30/11/2021 10:01



About/FAQs

Discord