[VON] Tokyo Ghoul - 10 [1080p][MP4].mp4


File Size387.4 MB (406,172,094 bytes)
DownloadGo4Up | Jheberg | MultiUp
  • ClickNupload
  • Fichier
  • Filerio
  • Free
  • Fufox
  • HugeFiles
  • Mightyupload
  • ToutBox
  • Turbobit
  • UpToBox
  • Uplea
  • UploadBaz
  • Uploadable
  • Uploaded
  • Uppit
| SolidFiles
Sendspace: Part1, Part2
HashesCRC32: FFF36C93, MD5: 06E280B371317CF4263D92621D7BFC77, SHA1: 7992128D317AA5F2E68775AFE12A70AA82EDADC3, SHA256: 824E57CC5D60CD1E9AE0E9F2C4B83A0589E2C13CE5B9FEFBBF78E001CD6D3794, ED2K: A207B941B97EBA24CD276F6329C13FA6
Screenshots
screenshotscreenshotscreenshotscreenshotscreenshot
Additional Info
General
Complete name                            : [VON] Tokyo Ghoul - 10 [1080p][MP4].mp4
Format                                   : MPEG-4
Format profile                           : Base Media / Version 2
Codec ID                                 : mp42
File size                                : 387 MiB
Duration                                 : 24mn 6s
Overall bit rate mode                    : Variable
Overall bit rate                         : 2 246 Kbps
Encoded date                             : UTC 2015-10-14 23:43:58
Tagged date                              : UTC 2015-10-14 23:43:58
gsst                                     : 0
gstd                                     : 1447066
gssd                                     : B4A7DD8E7
gshh                                     : r7---sn-cg07luer.c.docs.google.com

Video
ID                                       : 1
Format                                   : AVC
Format/Info                              : Advanced Video Codec
Format profile                           : High@L4.0
Format settings, CABAC                   : Yes
Format settings, ReFrames                : 1 frame
Codec ID                                 : avc1
Codec ID/Info                            : Advanced Video Coding
Duration                                 : 24mn 6s
Bit rate                                 : 2 051 Kbps
Maximum bit rate                         : 19.1 Mbps
Width                                    : 1 920 pixels
Height                                   : 1 080 pixels
Display aspect ratio                     : 16:9
Frame rate mode                          : Constant
Frame rate                               : 23.976 fps
Color space                              : YUV
Chroma subsampling                       : 4:2:0
Bit depth                                : 8 bits
Scan type                                : Progressive
Bits/(Pixel*Frame)                       : 0.041
Stream size                              : 354 MiB (91%)
Encoded date                             : UTC 1904-01-01 00:00:00
Tagged date                              : UTC 2015-10-14 23:45:01

Audio
ID                                       : 2
Format                                   : AAC
Format/Info                              : Advanced Audio Codec
Format profile                           : LC
Codec ID                                 : 40
Duration                                 : 24mn 6s
Bit rate mode                            : Variable
Bit rate                                 : 192 Kbps
Maximum bit rate                         : 202 Kbps
Channel(s)                               : 2 channels
Channel positions                        : Front: L R
Sampling rate                            : 44.1 KHz
Compression mode                         : Lossy
Stream size                              : 33.1 MiB (9%)
Title                                    : IsoMedia File Produced by Google, 5-11-2011
Encoded date                             : UTC 2015-10-14 23:44:31
Tagged date                              : UTC 2015-10-14 23:45:01

Other Files in this Torrent
[VON] Tokyo Ghoul - 10 [1080p][MP4].mp4
beta
Anime DDL+NZB mirror
Current Time: 30/11/2021 08:44



About/FAQs

Discord