[VON] Tokyo Ghoul - 02 [1080p][MP4].mp4


File Size372.2 MB (390,319,787 bytes)
DownloadGo4Up | Jheberg | MultiUp
  • ClickNupload
  • Fichier
  • Filerio
  • Free
  • Fufox
  • HugeFiles
  • Mightyupload
  • ToutBox
  • Turbobit
  • UpToBox
  • Uplea
  • UploadBaz
  • Uploadable
  • Uploaded
  • Uppit
| SolidFiles
Sendspace: Part1, Part2
HashesCRC32: 540473AB, MD5: B930EC88EFD9B1B22ECEC9E8417C03B1, SHA1: 6C2A871A6D823B51D549243753B648B67CDEBAD4, SHA256: 528793F75568084CAE47D713AF4A5E7AE4E1DF07259B916E039272D538EF5636, ED2K: 987DB3CCD807404E39A789A2BC5125DB
Screenshots
screenshotscreenshotscreenshotscreenshotscreenshot
Additional Info
General
Complete name                            : [VON] Tokyo Ghoul - 02 [1080p][MP4].mp4
Format                                   : MPEG-4
Format profile                           : Base Media / Version 2
Codec ID                                 : mp42
File size                                : 372 MiB
Duration                                 : 24mn 1s
Overall bit rate mode                    : Variable
Overall bit rate                         : 2 165 Kbps
Encoded date                             : UTC 2015-10-15 00:36:56
Tagged date                              : UTC 2015-10-15 00:36:56
gsst                                     : 0
gstd                                     : 1442005
gssd                                     : B4A7DD808
gshh                                     : r8---sn-cg07luee.c.docs.google.com

Video
ID                                       : 1
Format                                   : AVC
Format/Info                              : Advanced Video Codec
Format profile                           : High@L4.0
Format settings, CABAC                   : Yes
Format settings, ReFrames                : 1 frame
Codec ID                                 : avc1
Codec ID/Info                            : Advanced Video Coding
Duration                                 : 24mn 1s
Bit rate                                 : 1 971 Kbps
Maximum bit rate                         : 10.9 Mbps
Width                                    : 1 920 pixels
Height                                   : 1 080 pixels
Display aspect ratio                     : 16:9
Frame rate mode                          : Constant
Frame rate                               : 23.976 fps
Color space                              : YUV
Chroma subsampling                       : 4:2:0
Bit depth                                : 8 bits
Scan type                                : Progressive
Bits/(Pixel*Frame)                       : 0.040
Stream size                              : 339 MiB (91%)
Encoded date                             : UTC 1904-01-01 00:00:00
Tagged date                              : UTC 2015-10-15 00:38:11

Audio
ID                                       : 2
Format                                   : AAC
Format/Info                              : Advanced Audio Codec
Format profile                           : LC
Codec ID                                 : 40
Duration                                 : 24mn 1s
Bit rate mode                            : Variable
Bit rate                                 : 192 Kbps
Maximum bit rate                         : 201 Kbps
Channel(s)                               : 2 channels
Channel positions                        : Front: L R
Sampling rate                            : 44.1 KHz
Compression mode                         : Lossy
Stream size                              : 33.0 MiB (9%)
Title                                    : IsoMedia File Produced by Google, 5-11-2011
Encoded date                             : UTC 2015-10-15 00:37:13
Tagged date                              : UTC 2015-10-15 00:38:11

Other Files in this Torrent
[VON] Tokyo Ghoul - 02 [1080p][MP4].mp4
beta
Anime DDL+NZB mirror
Current Time: 30/11/2021 08:44



About/FAQs

Discord