[VON] Tokyo Ghoul - 05 [1080p][MP4].mp4


File Size385.1 MB (403,857,621 bytes)
DownloadGo4Up | Jheberg | MultiUp
  • ClickNupload
  • Fichier
  • Filerio
  • Free
  • Fufox
  • HugeFiles
  • Mightyupload
  • ToutBox
  • Turbobit
  • UpToBox
  • Uplea
  • UploadBaz
  • Uploadable
  • Uploaded
  • Uppit
| SolidFiles
Sendspace: Part1, Part2
HashesCRC32: F8EED73F, MD5: 3A57A4B3E90587AC69062FA276A6A8D0, SHA1: ECC0C9982417C5260B7197640921A39AB90C954C, SHA256: 3A0CE86C6F63839AA61EA9B9A3090AA6587D4355145B6B5095EE3D633BA5A276, ED2K: 2A627A33C3C1E00E036AA58F27046179
Screenshots
screenshotscreenshotscreenshotscreenshotscreenshot
Additional Info
General
Complete name                            : [VON] Tokyo Ghoul - 05 [1080p][MP4].mp4
Format                                   : MPEG-4
Format profile                           : Base Media / Version 2
Codec ID                                 : mp42
File size                                : 385 MiB
Duration                                 : 24mn 5s
Overall bit rate mode                    : Variable
Overall bit rate                         : 2 234 Kbps
Encoded date                             : UTC 2015-10-14 23:47:37
Tagged date                              : UTC 2015-10-14 23:47:37
gsst                                     : 0
gstd                                     : 1446115
gssd                                     : B0AFCE4AC
gshh                                     : r13---sn-p5qlsn7s.c.docs.google.com

Video
ID                                       : 1
Format                                   : AVC
Format/Info                              : Advanced Video Codec
Format profile                           : High@L4.0
Format settings, CABAC                   : Yes
Format settings, ReFrames                : 1 frame
Codec ID                                 : avc1
Codec ID/Info                            : Advanced Video Coding
Duration                                 : 24mn 5s
Bit rate                                 : 2 040 Kbps
Maximum bit rate                         : 10.5 Mbps
Width                                    : 1 920 pixels
Height                                   : 1 080 pixels
Display aspect ratio                     : 16:9
Frame rate mode                          : Constant
Frame rate                               : 23.976 fps
Color space                              : YUV
Chroma subsampling                       : 4:2:0
Bit depth                                : 8 bits
Scan type                                : Progressive
Bits/(Pixel*Frame)                       : 0.041
Stream size                              : 352 MiB (91%)
Encoded date                             : UTC 1904-01-01 00:00:00
Tagged date                              : UTC 2015-10-14 23:48:49

Audio
ID                                       : 2
Format                                   : AAC
Format/Info                              : Advanced Audio Codec
Format profile                           : LC
Codec ID                                 : 40
Duration                                 : 24mn 5s
Bit rate mode                            : Variable
Bit rate                                 : 192 Kbps
Maximum bit rate                         : 201 Kbps
Channel(s)                               : 2 channels
Channel positions                        : Front: L R
Sampling rate                            : 44.1 KHz
Compression mode                         : Lossy
Stream size                              : 33.1 MiB (9%)
Title                                    : IsoMedia File Produced by Google, 5-11-2011
Encoded date                             : UTC 2015-10-14 23:48:20
Tagged date                              : UTC 2015-10-14 23:48:49

Other Files in this Torrent
[VON] Tokyo Ghoul - 05 [1080p][MP4].mp4
beta
Anime DDL+NZB mirror
Current Time: 30/11/2021 09:59



About/FAQs

Discord