[VON] Tokyo Ghoul - 01 [1080p][MP4].mp4


File Size431.4 MB (452,342,568 bytes)
DownloadGo4Up | Jheberg | MultiUp
  • ClickNupload
  • Fichier
  • Filerio
  • Free
  • Fufox
  • HugeFiles
  • Mightyupload
  • ToutBox
  • Turbobit
  • UpToBox
  • Uplea
  • UploadBaz
  • Uploadable
  • Uploaded
  • Uppit
| SolidFiles
Sendspace: Part1, Part2
HashesCRC32: F863F426, MD5: 0DEFFDC29042B09A2B646C2C8CEBC9A2, SHA1: 2A4224A8DEAA98B6C04B9006DC29DA874D77D487, SHA256: 0238DAF1248F4D3413E2515572B6015F298653ECBFE4C504C38F6A61340F9899, ED2K: E2EDAFC9E14D8EFA0FC7EEBC2F430911
Screenshots
screenshotscreenshotscreenshotscreenshotscreenshot
Additional Info
General
Complete name                            : [VON] Tokyo Ghoul - 01 [1080p][MP4].mp4
Format                                   : MPEG-4
Format profile                           : Base Media / Version 2
Codec ID                                 : mp42
File size                                : 431 MiB
Duration                                 : 26mn 4s
Overall bit rate mode                    : Variable
Overall bit rate                         : 2 314 Kbps
Encoded date                             : UTC 2015-10-14 23:33:55
Tagged date                              : UTC 2015-10-14 23:33:55
gsst                                     : 0
gstd                                     : 1564095
gssd                                     : B0AFCE8D1
gshh                                     : r4---sn-aigllnlr.c.docs.google.com

Video
ID                                       : 1
Format                                   : AVC
Format/Info                              : Advanced Video Codec
Format profile                           : High@L4.0
Format settings, CABAC                   : Yes
Format settings, ReFrames                : 1 frame
Codec ID                                 : avc1
Codec ID/Info                            : Advanced Video Coding
Duration                                 : 26mn 4s
Bit rate                                 : 2 119 Kbps
Maximum bit rate                         : 10.1 Mbps
Width                                    : 1 920 pixels
Height                                   : 1 080 pixels
Display aspect ratio                     : 16:9
Frame rate mode                          : Constant
Frame rate                               : 23.976 fps
Color space                              : YUV
Chroma subsampling                       : 4:2:0
Bit depth                                : 8 bits
Scan type                                : Progressive
Bits/(Pixel*Frame)                       : 0.043
Stream size                              : 395 MiB (92%)
Encoded date                             : UTC 1904-01-01 00:00:00
Tagged date                              : UTC 2015-10-14 23:34:26

Audio
ID                                       : 2
Format                                   : AAC
Format/Info                              : Advanced Audio Codec
Format profile                           : LC
Codec ID                                 : 40
Duration                                 : 26mn 4s
Bit rate mode                            : Variable
Bit rate                                 : 192 Kbps
Maximum bit rate                         : 202 Kbps
Channel(s)                               : 2 channels
Channel positions                        : Front: L R
Sampling rate                            : 44.1 KHz
Compression mode                         : Lossy
Stream size                              : 35.8 MiB (8%)
Title                                    : IsoMedia File Produced by Google, 5-11-2011
Encoded date                             : UTC 2015-10-14 23:34:14
Tagged date                              : UTC 2015-10-14 23:34:26

Other Files in this Torrent
[VON] Tokyo Ghoul - 01 [1080p][MP4].mp4
beta
Anime DDL+NZB mirror
Current Time: 30/11/2021 10:10



About/FAQs

Discord