[VON] Tokyo Ghoul - 06 [1080p][MP4].mp4


File Size481.9 MB (505,342,269 bytes)
DownloadGo4Up | Jheberg | MultiUp | SolidFiles
Sendspace: Part1, Part2
HashesCRC32: 31678B64, MD5: D7D6861D8195C92488BE44641EBAC4F6, SHA1: 99E9B336F5E42AD7E25E8B10FCD7958FBDB72C9A, SHA256: 23E01B4DD77CC170669538925503F2DEC0BCBB7DF70EFCCB88105FD9F52FF2C9, ED2K: B8C0BF92C2CD4B95C660C588C50575A2
Screenshots
screenshotscreenshotscreenshotscreenshotscreenshot
Additional Info
General
Complete name                            : [VON] Tokyo Ghoul - 06 [1080p][MP4].mp4
Format                                   : MPEG-4
Format profile                           : Base Media / Version 2
Codec ID                                 : mp42
File size                                : 482 MiB
Duration                                 : 24mn 1s
Overall bit rate mode                    : Variable
Overall bit rate                         : 2 804 Kbps
Encoded date                             : UTC 2015-10-14 23:23:22
Tagged date                              : UTC 2015-10-14 23:23:22
gsst                                     : 0
gstd                                     : 1442005
gssd                                     : B4A7DD804
gshh                                     : r4---sn-cg07luee.c.docs.google.com

Video
ID                                       : 1
Format                                   : AVC
Format/Info                              : Advanced Video Codec
Format profile                           : High@L4.0
Format settings, CABAC                   : Yes
Format settings, ReFrames                : 1 frame
Codec ID                                 : avc1
Codec ID/Info                            : Advanced Video Coding
Duration                                 : 24mn 1s
Bit rate                                 : 2 609 Kbps
Maximum bit rate                         : 14.0 Mbps
Width                                    : 1 920 pixels
Height                                   : 1 080 pixels
Display aspect ratio                     : 16:9
Frame rate mode                          : Constant
Frame rate                               : 23.976 fps
Color space                              : YUV
Chroma subsampling                       : 4:2:0
Bit depth                                : 8 bits
Scan type                                : Progressive
Bits/(Pixel*Frame)                       : 0.052
Stream size                              : 449 MiB (93%)
Encoded date                             : UTC 1904-01-01 00:00:00
Tagged date                              : UTC 2015-10-14 23:24:42

Audio
ID                                       : 2
Format                                   : AAC
Format/Info                              : Advanced Audio Codec
Format profile                           : LC
Codec ID                                 : 40
Duration                                 : 24mn 1s
Bit rate mode                            : Variable
Bit rate                                 : 192 Kbps
Maximum bit rate                         : 202 Kbps
Channel(s)                               : 2 channels
Channel positions                        : Front: L R
Sampling rate                            : 44.1 KHz
Compression mode                         : Lossy
Stream size                              : 33.0 MiB (7%)
Title                                    : IsoMedia File Produced by Google, 5-11-2011
Encoded date                             : UTC 2015-10-14 23:24:20
Tagged date                              : UTC 2015-10-14 23:24:42

Other Files in this Torrent
[VON] Tokyo Ghoul - 06 [1080p][MP4].mp4
beta
Anime DDL+NZB mirror
Current Time: 30/11/2021 09:05



About/FAQs

Discord