[VON] Tokyo Ghoul - 07 [1080p][MP4].mp4


File Size431.8 MB (452,731,869 bytes)
DownloadGo4Up | Jheberg | MultiUp
  • ClickNupload
  • Fichier
  • Filerio
  • Free
  • Fufox
  • HugeFiles
  • Mightyupload
  • ToutBox
  • Turbobit
  • UpToBox
  • Uplea
  • UploadBaz
  • Uploadable
  • Uploaded
  • Uppit
| SolidFiles
Sendspace: Part1, Part2
HashesCRC32: 4F209338, MD5: 4A9FF15DFE3823512808CB50DC6DD5A3, SHA1: 12E3738148B0B595254A45B5321481AD7F9B467E, SHA256: C4F30CB7134054E00D9AA5F79EB2FB36E582AD581CE6135BCD3E972A16363ED3, ED2K: 74148501BE4BA295E14B9760CC605318
Screenshots
screenshotscreenshotscreenshotscreenshotscreenshot
Additional Info
General
Complete name                            : [VON] Tokyo Ghoul - 07 [1080p][MP4].mp4
Format                                   : MPEG-4
Format profile                           : Base Media / Version 2
Codec ID                                 : mp42
File size                                : 432 MiB
Duration                                 : 24mn 7s
Overall bit rate mode                    : Variable
Overall bit rate                         : 2 501 Kbps
Encoded date                             : UTC 2015-10-14 23:58:51
Tagged date                              : UTC 2015-10-14 23:58:51
gsst                                     : 0
gstd                                     : 1447971
gssd                                     : B4A7DD8E2
gshh                                     : r2---sn-cg07luer.c.docs.google.com

Video
ID                                       : 1
Format                                   : AVC
Format/Info                              : Advanced Video Codec
Format profile                           : High@L4.0
Format settings, CABAC                   : Yes
Format settings, ReFrames                : 1 frame
Codec ID                                 : avc1
Codec ID/Info                            : Advanced Video Coding
Duration                                 : 24mn 7s
Bit rate                                 : 2 307 Kbps
Maximum bit rate                         : 19.4 Mbps
Width                                    : 1 920 pixels
Height                                   : 1 080 pixels
Display aspect ratio                     : 16:9
Frame rate mode                          : Constant
Frame rate                               : 23.976 fps
Color space                              : YUV
Chroma subsampling                       : 4:2:0
Bit depth                                : 8 bits
Scan type                                : Progressive
Bits/(Pixel*Frame)                       : 0.046
Stream size                              : 398 MiB (92%)
Encoded date                             : UTC 1904-01-01 00:00:00
Tagged date                              : UTC 2015-10-15 00:04:59

Audio
ID                                       : 2
Format                                   : AAC
Format/Info                              : Advanced Audio Codec
Format profile                           : LC
Codec ID                                 : 40
Duration                                 : 24mn 7s
Bit rate mode                            : Variable
Bit rate                                 : 192 Kbps
Maximum bit rate                         : 201 Kbps
Channel(s)                               : 2 channels
Channel positions                        : Front: L R
Sampling rate                            : 44.1 KHz
Compression mode                         : Lossy
Stream size                              : 33.1 MiB (8%)
Title                                    : IsoMedia File Produced by Google, 5-11-2011
Encoded date                             : UTC 2015-10-15 00:02:50
Tagged date                              : UTC 2015-10-15 00:04:59

Other Files in this Torrent
[VON] Tokyo Ghoul - 07 [1080p][MP4].mp4
beta
Anime DDL+NZB mirror
Current Time: 30/11/2021 08:34



About/FAQs

Discord