[VON] Tokyo Ghoul - 08 [1080p][MP4].mp4


File Size507.6 MB (532,279,372 bytes)
DownloadGo4Up | Jheberg | MultiUp
  • ClickNupload
  • Fichier
  • Filerio
  • Free
  • Fufox
  • HugeFiles
  • Mightyupload
  • ToutBox
  • Turbobit
  • UpToBox
  • Uplea
  • UploadBaz
  • Uploadable
  • Uploaded
  • Uppit

Sendspace: Part1, Part2
SolidFiles: Part1, Part2
HashesCRC32: C155422A, MD5: 626DD168C24B88CFA238C37B069F2BC7, SHA1: 248860BF23310C273FF6B525284F4ED945A440C4, SHA256: 430F03532CA315B95AC4690FDAB2C2FD33831874919006160A5E74320D0273BB, ED2K: 74CA2FC490782E950693751938C6B231
Screenshots
screenshotscreenshotscreenshotscreenshotscreenshot
Additional Info
General
Complete name                            : [VON] Tokyo Ghoul - 08 [1080p][MP4].mp4
Format                                   : MPEG-4
Format profile                           : Base Media / Version 2
Codec ID                                 : mp42
File size                                : 508 MiB
Duration                                 : 24mn 6s
Overall bit rate mode                    : Variable
Overall bit rate                         : 2 943 Kbps
Encoded date                             : UTC 2015-10-14 23:45:00
Tagged date                              : UTC 2015-10-14 23:45:00
gsst                                     : 0
gstd                                     : 1447020
gssd                                     : B4A7DD865
gshh                                     : r5---sn-cg07luez.c.docs.google.com

Video
ID                                       : 1
Format                                   : AVC
Format/Info                              : Advanced Video Codec
Format profile                           : High@L4.0
Format settings, CABAC                   : Yes
Format settings, ReFrames                : 1 frame
Codec ID                                 : avc1
Codec ID/Info                            : Advanced Video Coding
Duration                                 : 24mn 6s
Bit rate                                 : 2 748 Kbps
Maximum bit rate                         : 16.9 Mbps
Width                                    : 1 920 pixels
Height                                   : 1 080 pixels
Display aspect ratio                     : 16:9
Frame rate mode                          : Constant
Frame rate                               : 23.976 fps
Color space                              : YUV
Chroma subsampling                       : 4:2:0
Bit depth                                : 8 bits
Scan type                                : Progressive
Bits/(Pixel*Frame)                       : 0.055
Stream size                              : 474 MiB (93%)
Encoded date                             : UTC 1904-01-01 00:00:00
Tagged date                              : UTC 2015-10-14 23:45:47

Audio
ID                                       : 2
Format                                   : AAC
Format/Info                              : Advanced Audio Codec
Format profile                           : LC
Codec ID                                 : 40
Duration                                 : 24mn 6s
Bit rate mode                            : Variable
Bit rate                                 : 192 Kbps
Maximum bit rate                         : 201 Kbps
Channel(s)                               : 2 channels
Channel positions                        : Front: L R
Sampling rate                            : 44.1 KHz
Compression mode                         : Lossy
Stream size                              : 33.1 MiB (7%)
Title                                    : IsoMedia File Produced by Google, 5-11-2011
Encoded date                             : UTC 2015-10-14 23:45:29
Tagged date                              : UTC 2015-10-14 23:45:47

Other Files in this Torrent
[VON] Tokyo Ghoul - 08 [1080p][MP4].mp4
beta
Anime DDL+NZB mirror
Current Time: 30/11/2021 09:12



About/FAQs

Discord