[VON] Tokyo Ghoul - 04 [1080p][MP4].mp4


File Size408.5 MB (428,345,779 bytes)
DownloadGo4Up | Jheberg | MultiUp
  • ClickNupload
  • Fichier
  • Filerio
  • Free
  • Fufox
  • HugeFiles
  • Mightyupload
  • ToutBox
  • Turbobit
  • UpToBox
  • Uplea
  • UploadBaz
  • Uploadable
  • Uploaded
  • Uppit
| SolidFiles
Sendspace: Part1, Part2
HashesCRC32: AE7BBC45, MD5: 39F4BF87959ABA2285F8CE1660D3FF71, SHA1: E04278BDBE88C8D3984E38392A96F546F1805B53, SHA256: 57874A116FDF2466AC13FBEB4B8DBC7930BD97904C03FDED90904E682BD32F6C, ED2K: 4BF25A9C728C707D70C786FD27605638
Screenshots
screenshotscreenshotscreenshotscreenshotscreenshot
Additional Info
General
Complete name                            : [VON] Tokyo Ghoul - 04 [1080p][MP4].mp4
Format                                   : MPEG-4
Format profile                           : Base Media / Version 2
Codec ID                                 : mp42
File size                                : 409 MiB
Duration                                 : 24mn 1s
Overall bit rate mode                    : Variable
Overall bit rate                         : 2 376 Kbps
Encoded date                             : UTC 2015-10-14 23:33:26
Tagged date                              : UTC 2015-10-14 23:33:26
gsst                                     : 0
gstd                                     : 1442051
gssd                                     : B4A7DD868
gshh                                     : r8---sn-cg07luez.c.docs.google.com

Video
ID                                       : 1
Format                                   : AVC
Format/Info                              : Advanced Video Codec
Format profile                           : High@L4.0
Format settings, CABAC                   : Yes
Format settings, ReFrames                : 1 frame
Format settings, GOP                     : M=1, N=24
Codec ID                                 : avc1
Codec ID/Info                            : Advanced Video Coding
Duration                                 : 24mn 1s
Bit rate                                 : 2 182 Kbps
Maximum bit rate                         : 10.7 Mbps
Width                                    : 1 920 pixels
Height                                   : 1 080 pixels
Display aspect ratio                     : 16:9
Frame rate mode                          : Constant
Frame rate                               : 23.976 fps
Color space                              : YUV
Chroma subsampling                       : 4:2:0
Bit depth                                : 8 bits
Scan type                                : Progressive
Bits/(Pixel*Frame)                       : 0.044
Stream size                              : 375 MiB (92%)
Encoded date                             : UTC 1904-01-01 00:00:00
Tagged date                              : UTC 2015-10-14 23:34:04

Audio
ID                                       : 2
Format                                   : AAC
Format/Info                              : Advanced Audio Codec
Format profile                           : LC
Codec ID                                 : 40
Duration                                 : 24mn 1s
Bit rate mode                            : Variable
Bit rate                                 : 192 Kbps
Maximum bit rate                         : 202 Kbps
Channel(s)                               : 2 channels
Channel positions                        : Front: L R
Sampling rate                            : 44.1 KHz
Compression mode                         : Lossy
Stream size                              : 33.0 MiB (8%)
Title                                    : IsoMedia File Produced by Google, 5-11-2011
Encoded date                             : UTC 2015-10-14 23:33:51
Tagged date                              : UTC 2015-10-14 23:34:04

Other Files in this Torrent
[VON] Tokyo Ghoul - 04 [1080p][MP4].mp4
beta
Anime DDL+NZB mirror
Current Time: 30/11/2021 09:57



About/FAQs

Discord