[VON] Tokyo Ghoul - 09 [1080p][MP4].mp4


File Size356.3 MB (373,586,101 bytes)
DownloadGo4Up | Jheberg | MultiUp | SolidFiles
Sendspace: Part1, Part2
HashesCRC32: 46E34EDB, MD5: DDA0D45D595033057EACFAB41B5A7412, SHA1: 28B7D6D82C5A78D984DD1325A1B9CE71622E47D9, SHA256: F427C4AA4F40A00E21B031B8951085C4735827129F16932E36B4CF536E5AA680, ED2K: B83ECE08CE7FCDE1B8729F07B86A1A53
Screenshots
screenshotscreenshotscreenshotscreenshotscreenshot
Additional Info
General
Complete name                            : [VON] Tokyo Ghoul - 09 [1080p][MP4].mp4
Format                                   : MPEG-4
Format profile                           : Base Media / Version 2
Codec ID                                 : mp42
File size                                : 356 MiB
Duration                                 : 24mn 6s
Overall bit rate mode                    : Variable
Overall bit rate                         : 2 065 Kbps
Encoded date                             : UTC 2015-10-14 23:19:55
Tagged date                              : UTC 2015-10-14 23:19:55
gsst                                     : 0
gstd                                     : 1447066
gssd                                     : B0AFCE935
gshh                                     : r18---sn-aigllnsl.c.docs.google.com

Video
ID                                       : 1
Format                                   : AVC
Format/Info                              : Advanced Video Codec
Format profile                           : High@L4.0
Format settings, CABAC                   : Yes
Format settings, ReFrames                : 1 frame
Codec ID                                 : avc1
Codec ID/Info                            : Advanced Video Coding
Duration                                 : 24mn 6s
Bit rate                                 : 1 871 Kbps
Maximum bit rate                         : 8 900 Kbps
Width                                    : 1 920 pixels
Height                                   : 1 080 pixels
Display aspect ratio                     : 16:9
Frame rate mode                          : Constant
Frame rate                               : 23.976 fps
Color space                              : YUV
Chroma subsampling                       : 4:2:0
Bit depth                                : 8 bits
Scan type                                : Progressive
Bits/(Pixel*Frame)                       : 0.038
Stream size                              : 323 MiB (91%)
Encoded date                             : UTC 1904-01-01 00:00:00
Tagged date                              : UTC 2015-10-14 23:20:29

Audio
ID                                       : 2
Format                                   : AAC
Format/Info                              : Advanced Audio Codec
Format profile                           : LC
Codec ID                                 : 40
Duration                                 : 24mn 6s
Bit rate mode                            : Variable
Bit rate                                 : 192 Kbps
Maximum bit rate                         : 202 Kbps
Channel(s)                               : 2 channels
Channel positions                        : Front: L R
Sampling rate                            : 44.1 KHz
Compression mode                         : Lossy
Stream size                              : 33.1 MiB (9%)
Title                                    : IsoMedia File Produced by Google, 5-11-2011
Encoded date                             : UTC 2015-10-14 23:20:14
Tagged date                              : UTC 2015-10-14 23:20:29

Other Files in this Torrent
[VON] Tokyo Ghoul - 09 [1080p][MP4].mp4
beta
Anime DDL+NZB mirror
Current Time: 30/11/2021 09:14



About/FAQs

Discord