[VON] Tokyo Ghoul - 03 [1080p][MP4].mp4


File Size367.6 MB (385,481,907 bytes)
DownloadGo4Up | Jheberg | MultiUp
  • ClickNupload
  • Fichier
  • Filerio
  • Free
  • Fufox
  • HugeFiles
  • Mightyupload
  • ToutBox
  • Turbobit
  • UpToBox
  • Uplea
  • UploadBaz
  • Uploadable
  • Uploaded
  • Uppit
| SolidFiles
Sendspace: Part1, Part2
HashesCRC32: FE12766D, MD5: 99299D382360114DC08A552B690C43B2, SHA1: 1B14E95C0B2600704F97167DEA39F482B6960EB4, SHA256: 251B2E001EA89BC22AE0841F65EE8747099210511142F159D9EDE14268374F8A, ED2K: C886005FA8E90A99B291FCBB5C0EA875
Screenshots
screenshotscreenshotscreenshotscreenshotscreenshot
Additional Info
General
Complete name                            : [VON] Tokyo Ghoul - 03 [1080p][MP4].mp4
Format                                   : MPEG-4
Format profile                           : Base Media / Version 2
Codec ID                                 : mp42
File size                                : 368 MiB
Duration                                 : 24mn 1s
Overall bit rate mode                    : Variable
Overall bit rate                         : 2 139 Kbps
Encoded date                             : UTC 2015-10-14 23:25:29
Tagged date                              : UTC 2015-10-14 23:25:29
gsst                                     : 0
gstd                                     : 1442051
gssd                                     : B4A7DD864
gshh                                     : r4---sn-cg07luez.c.docs.google.com

Video
ID                                       : 1
Format                                   : AVC
Format/Info                              : Advanced Video Codec
Format profile                           : High@L4.0
Format settings, CABAC                   : Yes
Format settings, ReFrames                : 1 frame
Codec ID                                 : avc1
Codec ID/Info                            : Advanced Video Coding
Duration                                 : 24mn 1s
Bit rate                                 : 1 944 Kbps
Maximum bit rate                         : 9 871 Kbps
Width                                    : 1 920 pixels
Height                                   : 1 080 pixels
Display aspect ratio                     : 16:9
Frame rate mode                          : Constant
Frame rate                               : 23.976 fps
Color space                              : YUV
Chroma subsampling                       : 4:2:0
Bit depth                                : 8 bits
Scan type                                : Progressive
Bits/(Pixel*Frame)                       : 0.039
Stream size                              : 334 MiB (91%)
Encoded date                             : UTC 1904-01-01 00:00:00
Tagged date                              : UTC 2015-10-14 23:26:43

Audio
ID                                       : 2
Format                                   : AAC
Format/Info                              : Advanced Audio Codec
Format profile                           : LC
Codec ID                                 : 40
Duration                                 : 24mn 1s
Bit rate mode                            : Variable
Bit rate                                 : 192 Kbps
Maximum bit rate                         : 202 Kbps
Channel(s)                               : 2 channels
Channel positions                        : Front: L R
Sampling rate                            : 44.1 KHz
Compression mode                         : Lossy
Stream size                              : 33.0 MiB (9%)
Title                                    : IsoMedia File Produced by Google, 5-11-2011
Encoded date                             : UTC 2015-10-14 23:25:43
Tagged date                              : UTC 2015-10-14 23:26:43

Other Files in this Torrent
[VON] Tokyo Ghoul - 03 [1080p][MP4].mp4
beta
Anime DDL+NZB mirror
Current Time: 30/11/2021 09:24



About/FAQs

Discord