[ggcaust]_Maria+Holic_-_11_[BFE0C7D4].mkv


File Size198.3 MB (207,926,559 bytes)
DownloadAnonFiles | Go4Up | Jheberg | MultiUp | Sendspace | ShareBeast | SolidFiles | UsersFiles
HashesCRC32: BFE0C7D4, MD5: CC10ADE9E91EE075C7EC90EB60C440AA, SHA1: DF2E3F25E6740E8EF4870C9C3ABA8C923B1547D2, SHA256: 3E37D2A86D0FF97B30F2B0092A4AB6EE81ED7E213CC2049D35C3C935C2898B20, ED2K: F8703D36B2421BAAE970859ACC76F740
Screenshots
screenshotscreenshotscreenshotscreenshotscreenshot
SubtitlesAll Attachments | Styled Subs [eng, ASS]
Additional Info
General
Unique ID                                : 181583983482631988386195412412296187039 (0x889BCD995706634086FC4A0DB8E5CC9F)
Complete name                            : [ggcaust]_Maria+Holic_-_11_[BFE0C7D4].mkv
Format                                   : Matroska
Format version                           : Version 1
File size                                : 198 MiB
Duration                                 : 23mn 39s
Overall bit rate mode                    : Variable
Overall bit rate                         : 1 172 Kbps
Movie name                               : Maria Holic 11 - Offering to God
Encoded date                             : UTC 2009-03-23 20:13:28
Writing application                      : mkvmerge v2.4.0 ('Fumbling Towards Ecstasy') built on Oct 11 2008 20:13:15
Writing library                          : libebml v0.7.7 + libmatroska v0.8.1
Attachements                             : carolingia.ttf / Carwash.ttf / CENTAUR.TTF / Century Holic.ttf / Cheltenham-BookCond.otf / DFKAPW5W.TTF / fansubBlock.ttf / Humana Sans ITC TT Bold.ttf / Humana Sans ITC TT BoldItalic.ttf / Humana Sans ITC TT Light.ttf / Humana Sans ITC TT LightItalic.ttf / Humana Sans Md ITC TT Medium.ttf / Humana Sans Md ITC TT MediumIta.ttf / Humana Serif Md ITC TT MedIta.ttf / Humana Serif Md ITC TT Medium.ttf / huxtable.ttf / indiestarbb_reg.otf / indiestarbb_reg.ttf / JacobyICG-Black.otf / JacobyICG-Light.otf / JanieHmk.ttf / JANIHB_.TTF / JAPAB__.TTF / KozGoPro-Bold.otf / LEVIBRUSH.TTF / LTe53507.ttf / mariaholiced.ttf / Museo500-Regular.otf / MyriadPro-Regular.otf / Old Newspaper Font.ttf / Profile-Medium.otf / Profile-Regular.otf / ROCC____.TTF / Sansation_Regular.ttf / SBBTRIAL.ttf / SF Square Head.ttf / Swiss 721 SWA.ttf / times.ttf / VTKS ANIMAL 2.ttf / YIKES!_.TTF

Video
ID                                       : 1
Format                                   : AVC
Format/Info                              : Advanced Video Codec
Format profile                           : High@L5.1
Format settings, CABAC                   : Yes
Format settings, ReFrames                : 9 frames
Codec ID                                 : V_MPEG4/ISO/AVC
Duration                                 : 23mn 39s
Bit rate                                 : 1 000 Kbps
Width                                    : 848 pixels
Height                                   : 480 pixels
Display aspect ratio                     : 16:9
Frame rate mode                          : Constant
Frame rate                               : 23.976 fps
Color space                              : YUV
Chroma subsampling                       : 4:2:0
Bit depth                                : 8 bits
Scan type                                : Progressive
Bits/(Pixel*Frame)                       : 0.102
Stream size                              : 173 MiB (87%)
Title                                    : Maria+Holic 11
Writing library                          : x264 core 67 r1128M 682b54d
Encoding settings                        : cabac=1 / ref=9 / deblock=1:1:0 / analyse=0x3:0x113 / me=umh / subme=9 / psy_rd=1.0:0.0 / mixed_ref=1 / me_range=24 / chroma_me=1 / trellis=2 / 8x8dct=1 / cqm=0 / deadzone=21,11 / chroma_qp_offset=-2 / threads=6 / nr=0 / decimate=1 / mbaff=0 / bframes=6 / b_pyramid=1 / b_adapt=2 / b_bias=0 / direct=3 / wpredb=1 / keyint=250 / keyint_min=25 / scenecut=40 / rc=2pass / bitrate=1000 / ratetol=3.0 / qcomp=0.60 / qpmin=10 / qpmax=51 / qpstep=4 / cplxblur=20.0 / qblur=0.5 / ip_ratio=1.40 / pb_ratio=1.30 / aq=1:1.00
Default                                  : Yes
Forced                                   : No

Audio
ID                                       : 2
Format                                   : Vorbis
Format settings, Floor                   : 1
Codec ID                                 : A_VORBIS
Duration                                 : 23mn 39s
Bit rate mode                            : Variable
Bit rate                                 : 128 Kbps
Channel(s)                               : 2 channels
Sampling rate                            : 48.0 KHz
Compression mode                         : Lossy
Stream size                              : 21.7 MiB (11%)
Title                                    : 2.0 Vorbis
Writing library                          : aoTuV b5c  (UTC 2008-12-15)
Language                                 : Japanese
Default                                  : Yes
Forced                                   : No

Text
ID                                       : 3
Format                                   : ASS
Codec ID                                 : S_TEXT/ASS
Codec ID/Info                            : Advanced Sub Station Alpha
Compression mode                         : Lossless
Title                                    : Styled Subs
Language                                 : English
Default                                  : Yes
Forced                                   : No

Menu #1
00:00:00.000                             : en:Touichirou+Holic
00:00:48.966                             : en:Kobayashi Yu to star in upcoming hentai flick.
00:02:18.930                             : en:Whisper words of wisdom, let it be.
00:12:26.871                             : en:Yonakuni's gallery
00:12:28.957                             : en:Lens flare
00:21:24.867                             : en:Kyun!
00:22:54.832                             : en:Ayarin~<3
00:23:19.857                             : en:D-Don't get the wrong idea about this!
00:23:34.830                             : en:1 more episode left desu yo~

Menu #2
00:00:00.000                             : en:I'll show you who I'm going to fuck next
00:00:48.966                             : en:Because, you know who's next?
00:02:18.930                             : en:You
00:21:31.093                             : en:Ya sister
00:21:24.867                             : en:Ya mutha
00:22:54.832                             : en:That's who's next
00:23:34.288                             : en:I fucka ya mutha

Other Files in this Torrent
[ggcaust]_Maria+Holic_-_11_[BFE0C7D4].mkv
beta
Anime DDL+NZB mirror
Current Time: 27/01/2022 23:19



About/FAQs

Discord