[ggcaust]_Maria+Holic_-_12_[FFFFFFFF].mkv


File Size194.1 MB (203,568,006 bytes)
DownloadAnonFiles | Go4Up | Jheberg | MultiUp | Sendspace | ShareBeast | SolidFiles | UsersFiles
HashesCRC32: FFFFFFFF, MD5: 4BCE92616D9CB09E08A513D03D40B063, SHA1: 19C422087645576F2BB2024C543CDA301FD78465, SHA256: CCEAE32235CC2A5B137BAF52B9FCB012FFC1D5C82E9462F7085028C4798CC3CD, ED2K: 28DDB19C6938E7F31E2DAF6C757CE1C4
Screenshots
screenshotscreenshotscreenshotscreenshotscreenshot
SubtitlesAll Attachments | und [ASS]
Additional Info
General
Unique ID                                : 254221804171079530845338761706660070007 (0xBF4156A90B89698BAF3DDBD7484E8277)
Complete name                            : [ggcaust]_Maria+Holic_-_12_[FFFFFFFF].mkv
Format                                   : Matroska
Format version                           : Version 1
File size                                : 194 MiB
Duration                                 : 23mn 46s
Overall bit rate mode                    : Variable
Overall bit rate                         : 1 142 Kbps
Encoded date                             : UTC 2009-04-02 21:34:21
Writing application                      : mkvmerge v2.2.0 ('Turn It On Again') built on Mar  4 2008 12:58:26
Writing library                          : libebml v0.7.7 + libmatroska v0.8.1
Attachements                             : CascadeScript.otf / Century Holic.ttf / ChaparralPro-Semibold.ttf / Cheltenham-BookCond.otf / DFKAPW5W.TTF / Humana Sans ITC TT Bold.ttf / Humana Sans ITC TT BoldItalic.ttf / Humana Sans ITC TT Light.ttf / Humana Sans ITC TT LightItalic.ttf / Humana Sans Md ITC TT Medium.ttf / Humana Sans Md ITC TT MediumIta.ttf / IHATCS_.TTF / JacobyICG-Black.otf / JacobyICG-Light.otf / JANIHB_.TTF / JAPAB__.TTF / LEVIBRUSH.TTF / mariaholiced.ttf / Profile-Medium.otf / Profile-Regular.otf / Swiss 721 SWA.ttf

Video
ID                                       : 2
Format                                   : AVC
Format/Info                              : Advanced Video Codec
Format profile                           : High@L5.1
Format settings, CABAC                   : Yes
Format settings, ReFrames                : 9 frames
Codec ID                                 : V_MPEG4/ISO/AVC
Duration                                 : 23mn 46s
Bit rate                                 : 1 000 Kbps
Width                                    : 848 pixels
Height                                   : 480 pixels
Display aspect ratio                     : 16:9
Frame rate mode                          : Constant
Frame rate                               : 23.976 fps
Color space                              : YUV
Chroma subsampling                       : 4:2:0
Bit depth                                : 8 bits
Scan type                                : Progressive
Bits/(Pixel*Frame)                       : 0.102
Stream size                              : 169 MiB (87%)
Title                                    : M+H 12
Writing library                          : x264 core 67 r1128M 682b54d
Encoding settings                        : cabac=1 / ref=9 / deblock=1:1:0 / analyse=0x3:0x113 / me=umh / subme=9 / psy_rd=1.0:0.0 / mixed_ref=1 / me_range=24 / chroma_me=1 / trellis=2 / 8x8dct=1 / cqm=0 / deadzone=21,11 / chroma_qp_offset=-2 / threads=6 / nr=0 / decimate=1 / mbaff=0 / bframes=6 / b_pyramid=1 / b_adapt=2 / b_bias=0 / direct=3 / wpredb=1 / keyint=250 / keyint_min=25 / scenecut=40 / rc=2pass / bitrate=1000 / ratetol=3.0 / qcomp=0.60 / qpmin=10 / qpmax=51 / qpstep=4 / cplxblur=20.0 / qblur=0.5 / ip_ratio=1.40 / pb_ratio=1.30 / aq=1:1.00
Default                                  : Yes
Forced                                   : No

Audio
ID                                       : 3
Format                                   : Vorbis
Format settings, Floor                   : 1
Codec ID                                 : A_VORBIS
Duration                                 : 23mn 46s
Bit rate mode                            : Variable
Bit rate                                 : 128 Kbps
Channel(s)                               : 2 channels
Sampling rate                            : 48.0 KHz
Compression mode                         : Lossy
Stream size                              : 21.8 MiB (11%)
Title                                    : 2.0 Vorbis
Writing library                          : aoTuV b5c  (UTC 2008-12-15)
Language                                 : Japanese
Default                                  : Yes
Forced                                   : No

Text
ID                                       : 1
Format                                   : ASS
Codec ID                                 : S_TEXT/ASS
Codec ID/Info                            : Advanced Sub Station Alpha
Compression mode                         : Lossless
Default                                  : Yes
Forced                                   : No

Other Files in this Torrent
[ggcaust]_Maria+Holic_-_12_[FFFFFFFF].mkv
beta
Anime DDL+NZB mirror
Current Time: 27/01/2022 22:57



About/FAQs

Discord