[gg]_Maria+Holic_-_06_[C2C16F51].mkv


File Size195.3 MB (204,760,684 bytes)
DownloadAnonFiles | Go4Up | Jheberg | MultiUp | Sendspace | ShareBeast | SolidFiles | UsersFiles
HashesCRC32: C2C16F51, MD5: 6707391C06DAB036F91AE1CDF55F7A6D, SHA1: 57EA1985FDC70BBE08EEB857084B8D7B8EF90C50, SHA256: DB13FB5E98C6F061D168E9603B9D6A24D1E3D3576160F0290A767DB83B87D852, ED2K: 6FECD0659F8F0145880C0232CEAE4F29
Screenshots
screenshotscreenshotscreenshotscreenshotscreenshot
SubtitlesAll Attachments | ASS [eng, ASS]
Additional Info
General
Unique ID                                : 299285113244232948824270026357021850998 (0xE1283755A5F6DDCB1638FE28FCA7BD76)
Complete name                            : [gg]_Maria+Holic_-_06_[C2C16F51].mkv
Format                                   : Matroska
Format version                           : Version 1
File size                                : 195 MiB
Duration                                 : 23mn 49s
Overall bit rate mode                    : Variable
Overall bit rate                         : 1 146 Kbps
Movie name                               : Maria+Holic 06 - The Perverted Sick Bay
Encoded date                             : UTC 2009-02-13 17:05:17
Writing application                      : mkvmerge v2.1.0 ('Another Place To Fall') built on Jul 17 2008 21:34:25
Writing library                          : libebml v0.7.7 + libmatroska v0.8.1
Attachements                             : ArnoPro-SmbdSmText.otf / BirchStd.otf / Century Holic.ttf / DFKAPW5W.TTF / handsean.ttf / Humana Sans ITC TT Bold.ttf / Humana Sans ITC TT BoldItalic.ttf / Humana Sans ITC TT Light.ttf / Humana Sans ITC TT LightItalic.ttf / Humana Sans Md ITC TT Medium.ttf / Humana Sans Md ITC TT MediumIta.ttf / huxtable.ttf / JacobyICG-Black.otf / JacobyICG-Light.otf / JANIHB_.TTF / Jellyka_Estrya_Handwriting.ttf / l_10646.ttf / LEVIBRUSH.TTF / LTe50019.ttf / mariaholiced.ttf / MyriadPro-Regular.otf / Profile-Medium.otf / Profile-Regular.otf / Sansation_Regular.ttf / Swiss 721 SWA.ttf / Trade Gothic LT Bold No. 2.ttf / Trade Gothic LT Bold.ttf / YIKES.TTF / Adobe Garamond LT Bold.ttf / Adobe Garamond LT Semibold.ttf / arial.ttf

Video
ID                                       : 1
Format                                   : AVC
Format/Info                              : Advanced Video Codec
Format profile                           : High@L5.1
Format settings, CABAC                   : Yes
Format settings, ReFrames                : 9 frames
Codec ID                                 : V_MPEG4/ISO/AVC
Duration                                 : 23mn 49s
Bit rate                                 : 1 000 Kbps
Width                                    : 848 pixels
Height                                   : 480 pixels
Display aspect ratio                     : 16:9
Frame rate mode                          : Constant
Frame rate                               : 23.976 fps
Color space                              : YUV
Chroma subsampling                       : 4:2:0
Bit depth                                : 8 bits
Scan type                                : Progressive
Bits/(Pixel*Frame)                       : 0.102
Stream size                              : 170 MiB (87%)
Title                                    : Maria+Holic 06
Writing library                          : x264 core 66 r1109M 75b495f
Encoding settings                        : cabac=1 / ref=9 / deblock=1:1:0 / analyse=0x3:0x113 / me=umh / subme=9 / psy_rd=1.0:0.0 / mixed_ref=1 / me_range=24 / chroma_me=1 / trellis=2 / 8x8dct=1 / cqm=0 / deadzone=21,11 / chroma_qp_offset=-2 / threads=6 / nr=0 / decimate=1 / mbaff=0 / bframes=6 / b_pyramid=1 / b_adapt=2 / b_bias=0 / direct=3 / wpredb=1 / keyint=250 / keyint_min=25 / scenecut=40(pre) / rc=2pass / bitrate=1000 / ratetol=3.0 / qcomp=0.60 / qpmin=10 / qpmax=51 / qpstep=4 / cplxblur=20.0 / qblur=0.5 / ip_ratio=1.40 / pb_ratio=1.30 / aq=1:1.00
Language                                 : English
Default                                  : Yes
Forced                                   : No

Audio
ID                                       : 2
Format                                   : Vorbis
Format settings, Floor                   : 1
Codec ID                                 : A_VORBIS
Duration                                 : 23mn 49s
Bit rate mode                            : Variable
Bit rate                                 : 128 Kbps
Channel(s)                               : 2 channels
Sampling rate                            : 48.0 KHz
Compression mode                         : Lossy
Stream size                              : 21.8 MiB (11%)
Title                                    : 2.0 Vorbis
Writing library                          : aoTuV b5c  (UTC 2008-12-15)
Language                                 : Japanese
Default                                  : Yes
Forced                                   : No

Text
ID                                       : 3
Format                                   : ASS
Codec ID                                 : S_TEXT/ASS
Codec ID/Info                            : Advanced Sub Station Alpha
Compression mode                         : Lossless
Title                                    : ASS
Language                                 : English
Default                                  : Yes
Forced                                   : No

Menu
00:00:00.000                             : :Introduction - Monster Attacks
00:00:45.003                             : :OP - Guitar Maid~
00:03:22.035                             : :Maria+Holic 06: The Perverted Sick Bay
00:11:13.005                             : :Random Fanservice
00:21:50.015                             : :ED - Maria+Holic for the NES.
00:23:20.022                             : :Omake
00:23:34.119                             : :Watch the Next Episode!

Other Files in this Torrent
[gg]_Maria+Holic_-_06_[C2C16F51].mkv
beta
Anime DDL+NZB mirror
Current Time: 27/01/2022 23:59



About/FAQs

Discord