[ggcaust]_Maria+Holic_-_10_[00078A38].mkv


File Size194.1 MB (203,543,827 bytes)
DownloadAnonFiles | Go4Up | Jheberg | MultiUp | Sendspace | ShareBeast | SolidFiles | UsersFiles
HashesCRC32: 00078A38, MD5: 50A8274767305BE1CC157A4B473D614A, SHA1: 7C8541F840A477994ED25D5B396BCE454110F4BB, SHA256: AA8469F8CA432B480447A6313BD7F72BF09CCEB077FE12EFB4DF7BEF206BC56E, ED2K: 719BC1CCB3B94771A89BA5A17EAEA717
Screenshots
screenshotscreenshotscreenshotscreenshotscreenshot
SubtitlesAll Attachments | Styled Subs [eng, ASS]
Additional Info
General
Unique ID                                : 197048317805399555171886213287443924657 (0x943E2025B32E12F0ABD3F6694CFF86B1)
Complete name                            : [ggcaust]_Maria+Holic_-_10_[00078A38].mkv
Format                                   : Matroska
Format version                           : Version 1
File size                                : 194 MiB
Duration                                 : 23mn 39s
Overall bit rate mode                    : Variable
Overall bit rate                         : 1 147 Kbps
Movie name                               : Maria+Holic 10
Encoded date                             : UTC 2009-03-15 01:15:58
Writing application                      : mkvmerge v2.4.0 ('Fumbling Towards Ecstasy') built on Oct 11 2008 20:13:15
Writing library                          : libebml v0.7.7 + libmatroska v0.8.1
Attachements                             : Adobe Garamond Small Caps & Oldstyle Figures.ttf / Century Holic.ttf / Cheltenham-Bold.otf / Cheltenham-BoldCond.otf / Cheltenham-BoldCondItalic.otf / Cheltenham-BoldItalic.otf / Cheltenham-Book.otf / Cheltenham-BookCond.otf / Cheltenham-BookCondItalic.otf / Cheltenham-BookItalic.otf / Cheltenham-Light.otf / Cheltenham-LightCond.otf / Cheltenham-LightCondItalic.otf / Cheltenham-LightItalic.otf / Cheltenham-Ultra.otf / Cheltenham-UltraCond.otf / Cheltenham-UltraCondItalic.otf / Cheltenham-UltraItalic.otf / DFKAPW5W.TTF / Futura LT Book.ttf / Humana Sans ITC TT Bold.ttf / Humana Sans ITC TT BoldItalic.ttf / Humana Sans ITC TT Light.ttf / Humana Sans ITC TT LightItalic.ttf / Humana Serif Md ITC TT MedIta.ttf / Humana Serif Md ITC TT Medium.ttf / huxtable.ttf / JacobyICG-Black.otf / JacobyICG-Light.otf / JANIHB_.TTF / LEVIBRUSH.TTF / LHANDW.TTF / mariaholiced.ttf / Profile-Medium.otf / Profile-Regular.otf / SF Square Head.ttf / Swiss 721 SWA.ttf / TektonPro-Bold.otf / TektonPro-BoldCond.otf / TektonPro-BoldExt.otf / TektonPro-BoldObl.otf

Video
ID                                       : 1
Format                                   : AVC
Format/Info                              : Advanced Video Codec
Format profile                           : High@L5.1
Format settings, CABAC                   : Yes
Format settings, ReFrames                : 9 frames
Codec ID                                 : V_MPEG4/ISO/AVC
Duration                                 : 23mn 39s
Bit rate                                 : 1 000 Kbps
Width                                    : 848 pixels
Height                                   : 480 pixels
Display aspect ratio                     : 16:9
Frame rate mode                          : Constant
Frame rate                               : 23.976 fps
Color space                              : YUV
Chroma subsampling                       : 4:2:0
Bit depth                                : 8 bits
Scan type                                : Progressive
Bits/(Pixel*Frame)                       : 0.102
Stream size                              : 169 MiB (87%)
Title                                    : Maria+Holic 10
Writing library                          : x264 core 67 r1125M 10d6ef0
Encoding settings                        : cabac=1 / ref=9 / deblock=1:1:0 / analyse=0x3:0x113 / me=umh / subme=9 / psy_rd=1.0:0.0 / mixed_ref=1 / me_range=24 / chroma_me=1 / trellis=2 / 8x8dct=1 / cqm=0 / deadzone=21,11 / chroma_qp_offset=-2 / threads=6 / nr=0 / decimate=1 / mbaff=0 / bframes=6 / b_pyramid=1 / b_adapt=2 / b_bias=0 / direct=3 / wpredb=1 / keyint=250 / keyint_min=25 / scenecut=40 / rc=2pass / bitrate=1000 / ratetol=3.0 / qcomp=0.60 / qpmin=10 / qpmax=51 / qpstep=4 / cplxblur=20.0 / qblur=0.5 / ip_ratio=1.40 / pb_ratio=1.30 / aq=1:1.00
Default                                  : Yes
Forced                                   : No

Audio
ID                                       : 2
Format                                   : Vorbis
Format settings, Floor                   : 1
Codec ID                                 : A_VORBIS
Duration                                 : 23mn 39s
Bit rate mode                            : Variable
Bit rate                                 : 128 Kbps
Channel(s)                               : 2 channels
Sampling rate                            : 48.0 KHz
Compression mode                         : Lossy
Stream size                              : 21.7 MiB (11%)
Title                                    : 2.0 Vorbis
Writing library                          : aoTuV b5c  (UTC 2008-12-15)
Language                                 : Japanese
Default                                  : Yes
Forced                                   : No

Text
ID                                       : 3
Format                                   : ASS
Codec ID                                 : S_TEXT/ASS
Codec ID/Info                            : Advanced Sub Station Alpha
Compression mode                         : Lossless
Title                                    : Styled Subs
Language                                 : English
Default                                  : Yes
Forced                                   : No

Menu
00:00:00.000                             : en:Prologue
00:00:48.000                             : en:OP - Guitar Maid~
00:02:18.001                             : en:Fault With Small Breasts
00:13:01.063                             : en:Love Letter From Berlin
00:21:31.093                             : en:ED - I didn't actually watch the ED so who knows what it is this week.
00:23:01.091                             : en:Epilogue
00:23:19.091                             : en:Omake
00:23:34.093                             : en:Watch the Next Episode!

Other Files in this Torrent
[ggcaust]_Maria+Holic_-_10_[00078A38].mkv
beta
Anime DDL+NZB mirror
Current Time: 27/01/2022 23:08



About/FAQs

Discord