[gg]_Maria+Holic_-_07_[40ED12C6].mkv


File Size194.2 MB (203,670,763 bytes)
DownloadAnonFiles | Go4Up | Jheberg | MultiUp | Sendspace | ShareBeast | SolidFiles | UsersFiles
HashesCRC32: 40ED12C6, MD5: 9256C6D56159B385BC4AF56C33574D8C, SHA1: 91B075E3A2E6EEB32C4F7BA5D539822FBD6B6034, SHA256: D0463C669FCE0FD91E4829FEE31C06B3BDA31A550DEFAD0B8D402DEA08854D8A, ED2K: 974C34B8CFE12FB2BC12764873CCFB6E
Screenshots
screenshotscreenshotscreenshotscreenshotscreenshot
SubtitlesAll Attachments | ASS [eng, ASS]
Additional Info
General
Unique ID                                : 325612727349200152746553504985157394438 (0xF4F6BAED921D5E9C645F2AFDBE1EE006)
Complete name                            : [gg]_Maria+Holic_-_07_[40ED12C6].mkv
Format                                   : Matroska
Format version                           : Version 1
File size                                : 194 MiB
Duration                                 : 23mn 39s
Overall bit rate mode                    : Variable
Overall bit rate                         : 1 148 Kbps
Movie name                               : Maria+Holic 07 - The Suspicious Black Underwear
Encoded date                             : UTC 2009-02-21 00:57:29
Writing application                      : mkvmerge v2.1.0 ('Another Place To Fall') built on Jul 17 2008 21:34:25
Writing library                          : libebml v0.7.7 + libmatroska v0.8.1
Attachements                             : Humana Sans Md ITC TT Medium.ttf / Humana Sans Md ITC TT MediumIta.ttf / Humana Serif Md ITC TT MedIta.ttf / Humana Serif Md ITC TT Medium.ttf / huxtable.ttf / JacobyICG-Black.otf / JacobyICG-Light.otf / JANIHB_.TTF / LEVIBRUSH.TTF / mariaholiced.ttf / MyriadPro-Regular.otf / Profile-Black.otf / Profile-Medium.otf / Profile-Regular.otf / Swiss 721 SWA.ttf / arial.ttf / BirchStd.otf / carolingia.ttf / Century Holic.ttf / DFKAPW5W.TTF / GaramondPremrPro-Smbd.otf / Humana Sans ITC TT Bold.ttf / Humana Sans ITC TT BoldItalic.ttf / Humana Sans ITC TT Light.ttf / Humana Sans ITC TT LightItalic.ttf

Video
ID                                       : 1
Format                                   : AVC
Format/Info                              : Advanced Video Codec
Format profile                           : High@L5.1
Format settings, CABAC                   : Yes
Format settings, ReFrames                : 9 frames
Codec ID                                 : V_MPEG4/ISO/AVC
Duration                                 : 23mn 39s
Bit rate                                 : 1 000 Kbps
Width                                    : 848 pixels
Height                                   : 480 pixels
Display aspect ratio                     : 16:9
Frame rate mode                          : Constant
Frame rate                               : 23.976 fps
Color space                              : YUV
Chroma subsampling                       : 4:2:0
Bit depth                                : 8 bits
Scan type                                : Progressive
Bits/(Pixel*Frame)                       : 0.102
Stream size                              : 169 MiB (87%)
Title                                    : Maria+Holic 07
Writing library                          : x264 core 66 r1113M cc4f807
Encoding settings                        : cabac=1 / ref=9 / deblock=1:1:0 / analyse=0x3:0x113 / me=umh / subme=9 / psy_rd=1.0:0.0 / mixed_ref=1 / me_range=24 / chroma_me=1 / trellis=2 / 8x8dct=1 / cqm=0 / deadzone=21,11 / chroma_qp_offset=-2 / threads=6 / nr=0 / decimate=1 / mbaff=0 / bframes=6 / b_pyramid=1 / b_adapt=2 / b_bias=0 / direct=3 / wpredb=1 / keyint=250 / keyint_min=25 / scenecut=40(pre) / rc=2pass / bitrate=1000 / ratetol=3.0 / qcomp=0.60 / qpmin=10 / qpmax=51 / qpstep=4 / cplxblur=20.0 / qblur=0.5 / ip_ratio=1.40 / pb_ratio=1.30 / aq=1:1.00
Default                                  : Yes
Forced                                   : No

Audio
ID                                       : 2
Format                                   : Vorbis
Format settings, Floor                   : 1
Codec ID                                 : A_VORBIS
Duration                                 : 23mn 39s
Bit rate mode                            : Variable
Bit rate                                 : 128 Kbps
Channel(s)                               : 2 channels
Sampling rate                            : 48.0 KHz
Compression mode                         : Lossy
Stream size                              : 21.7 MiB (11%)
Title                                    : 2.0 Vorbis
Writing library                          : aoTuV b5c  (UTC 2008-12-15)
Language                                 : Japanese
Default                                  : Yes
Forced                                   : No

Text
ID                                       : 3
Format                                   : ASS
Codec ID                                 : S_TEXT/ASS
Codec ID/Info                            : Advanced Sub Station Alpha
Compression mode                         : Lossless
Title                                    : ASS
Language                                 : English
Default                                  : Yes
Forced                                   : No

Menu
00:00:00.000                             : :Maria+Holic 07: The Suspicious Black Underwear
00:01:12.947                             : :OP - Guitar Maid~
00:02:42.954                             : :Post OP Tranny
00:20:34.941                             : :ED - Maria+Holic for the NES.
00:22:04.947                             : :Epilogue
00:23:20.773                             : :Omake
00:23:34.954                             : :Watch the Next Episode!

Other Files in this Torrent
[gg]_Maria+Holic_-_07_[40ED12C6].mkv
beta
Anime DDL+NZB mirror
Current Time: 28/01/2022 00:20



About/FAQs

Discord