[gg]_Maria+Holic_-_08_[F6BC4F1C].mkv


File Size194.3 MB (203,686,204 bytes)
DownloadAnonFiles | Go4Up | Jheberg | MultiUp | Sendspace | ShareBeast | SolidFiles | UsersFiles
HashesCRC32: F6BC4F1C, MD5: 910886B9652F469B68033D16A6F7B3B9, SHA1: EB8D5E1D357C97231D624F02B04B545EADA2922C, SHA256: 88AA558B7891888EE338FD276BC7AEF1C86BD17ADB9AA9ED9F822E5A69B539BA, ED2K: 3ECAF7D7536B07571B6D5D0A1B90D451
Screenshots
screenshotscreenshotscreenshotscreenshotscreenshot
SubtitlesAll Attachments | ASS [eng, ASS]
Additional Info
General
Unique ID                                : 312904411371262348261139647637433492711 (0xEB6732933B5158F763AF8049576624E7)
Complete name                            : [gg]_Maria+Holic_-_08_[F6BC4F1C].mkv
Format                                   : Matroska
Format version                           : Version 1
File size                                : 194 MiB
Duration                                 : 23mn 39s
Overall bit rate mode                    : Variable
Overall bit rate                         : 1 148 Kbps
Movie name                               : Maria+Holic 08c The Tainted Virgin Mary - First Half
Encoded date                             : UTC 2009-02-28 08:48:13
Writing application                      : mkvmerge v2.1.0 ('Another Place To Fall') built on Jul 17 2008 21:34:25
Writing library                          : libebml v0.7.7 + libmatroska v0.8.1
Attachements                             : CerigoStd-MediumM.ttf / DFKAPW5W.TTF / fansubBlock.ttf / Felt Regular.ttf / Humana Sans ITC TT Bold.ttf / Humana Sans ITC TT BoldItalic.ttf / Humana Sans ITC TT Light.ttf / Humana Sans ITC TT LightItalic.ttf / Humana Serif ITC TT Bold.ttf / Humana Serif ITC TT BoldItalic.ttf / Humana Serif ITC TT Light.ttf / Humana Serif ITC TT LightItalic.ttf / Humana Serif Md ITC TT MedIta.ttf / Humana Serif Md ITC TT Medium.ttf / huxtable.ttf / Jacoby Regular.ttf / JacobyICG-Black.otf / JacobyICG-Light.otf / JanieHmk.ttf / JANIHB_.TTF / JOSSCHRI.TTF / JOURNAL.TTF / l_10646.ttf / laurencb.ttf / LEVIBRUSH.TTF / LTe53511.ttf / mariaholiced.ttf / medra__.ttf / Profile-Medium.otf / Profile-Regular.otf / Swiss 721 SWA.ttf / Trade Gothic LT Condensed No. 18.ttf / BirchStd.otf / Century Holic.ttf

Video
ID                                       : 1
Format                                   : AVC
Format/Info                              : Advanced Video Codec
Format profile                           : High@L5.1
Format settings, CABAC                   : Yes
Format settings, ReFrames                : 9 frames
Codec ID                                 : V_MPEG4/ISO/AVC
Duration                                 : 23mn 39s
Bit rate                                 : 1 000 Kbps
Width                                    : 848 pixels
Height                                   : 480 pixels
Display aspect ratio                     : 16:9
Frame rate mode                          : Constant
Frame rate                               : 23.976 fps
Color space                              : YUV
Chroma subsampling                       : 4:2:0
Bit depth                                : 8 bits
Scan type                                : Progressive
Bits/(Pixel*Frame)                       : 0.102
Stream size                              : 169 MiB (87%)
Title                                    : Maria+Holic 08
Writing library                          : x264 core 66 r1114M a933a3e
Encoding settings                        : cabac=1 / ref=9 / deblock=1:1:0 / analyse=0x3:0x113 / me=umh / subme=9 / psy_rd=1.0:0.0 / mixed_ref=1 / me_range=24 / chroma_me=1 / trellis=2 / 8x8dct=1 / cqm=0 / deadzone=21,11 / chroma_qp_offset=-2 / threads=6 / nr=0 / decimate=1 / mbaff=0 / bframes=6 / b_pyramid=1 / b_adapt=2 / b_bias=0 / direct=3 / wpredb=1 / keyint=250 / keyint_min=25 / scenecut=40(pre) / rc=2pass / bitrate=1000 / ratetol=3.0 / qcomp=0.60 / qpmin=10 / qpmax=51 / qpstep=4 / cplxblur=20.0 / qblur=0.5 / ip_ratio=1.40 / pb_ratio=1.30 / aq=1:1.00
Default                                  : Yes
Forced                                   : No

Audio
ID                                       : 2
Format                                   : Vorbis
Format settings, Floor                   : 1
Codec ID                                 : A_VORBIS
Duration                                 : 23mn 39s
Bit rate mode                            : Variable
Bit rate                                 : 128 Kbps
Channel(s)                               : 2 channels
Sampling rate                            : 48.0 KHz
Compression mode                         : Lossy
Stream size                              : 21.7 MiB (11%)
Title                                    : 2.0 Vorbis
Writing library                          : aoTuV b5c  (UTC 2008-12-15)
Language                                 : Japanese
Default                                  : Yes
Forced                                   : No

Text
ID                                       : 3
Format                                   : ASS
Codec ID                                 : S_TEXT/ASS
Codec ID/Info                            : Advanced Sub Station Alpha
Compression mode                         : Lossless
Title                                    : ASS
Language                                 : English
Default                                  : Yes
Forced                                   : No

Menu
00:00:00.000                             : :Maria+Holic 08: The Tainted Virgin Mary - First Half
00:00:50.008                             : :OP - Guitar Maid~
00:02:19.973                             : :Post OP Tranny
00:21:22.905                             : :ED - Maria+Holic for the NES.
00:22:52.912                             : :Epilogue
00:23:19.980                             : :Omake
00:23:34.954                             : :Watch the Next Episode!

Other Files in this Torrent
[gg]_Maria+Holic_-_08_[F6BC4F1C].mkv
beta
Anime DDL+NZB mirror
Current Time: 28/01/2022 00:26



About/FAQs

Discord