[gg]_Maria+Holic_-_02_[178FD4ED].mkv


File Size194.6 MB (204,064,225 bytes)
DownloadAnonFiles | Go4Up | Jheberg | MultiUp
  • BayFiles
  • BillionUploads
  • DepositFiles
  • Fichier
  • Free
  • HugeFiles
  • Ryushare
  • Turbobit
  • UpToBox
  • UploadHero
  • Uploaded
  • ZippyShare
| Sendspace | ShareBeast | SolidFiles | UsersFiles
HashesCRC32: 178FD4ED, MD5: AA1DF30C13EFF1399E252CC3199AC5B9, SHA1: 5F39208EE634A3765E553B8B5EB119B399E291E3, SHA256: D59C9446BF76686AAFC5E5A7C3310B522C73C83055E5958562051509EE259E46, ED2K: 8AD107707F6356BB85B9BD422C65EC8D
Screenshots
screenshotscreenshotscreenshotscreenshotscreenshot
SubtitlesAll Attachments | ASS [eng, ASS]
Additional Info
General
Unique ID                                : 115165796982281305958038695417799547381 (0x56A4202DBA2113A5C7B3F6CA563899F5)
Complete name                            : [gg]_Maria+Holic_-_02_[178FD4ED].mkv
Format                                   : Matroska
Format version                           : Version 1
File size                                : 195 MiB
Duration                                 : 23mn 39s
Overall bit rate mode                    : Variable
Overall bit rate                         : 1 150 Kbps
Movie name                               : Maria + Holic 02 - Sweet Pain
Encoded date                             : UTC 2009-01-16 06:21:17
Writing application                      : mkvmerge v2.1.0 ('Another Place To Fall') built on Jul 17 2008 21:34:25
Writing library                          : libebml v0.7.7 + libmatroska v0.8.1
Attachements                             : Humana Sans ITC TT Light.ttf / Humana Sans ITC TT LightItalic.ttf / Humana Sans Md ITC TT Medium.ttf / Humana Sans Md ITC TT MediumIta.ttf / Humana Serif Md ITC TT MedIta.ttf / Humana Serif Md ITC TT Medium.ttf / HUMASNM_.TTF / HUMASNMI.TTF / huxtable.ttf / ITC Avant Garde Gothic LT Book.ttf / Jacoby Regular.ttf / JacobyCondICGLight.otf / JacobyICG-Light.otf / JANIHB_.TTF / JANIHB__.TTF / mariaholiced.ttf / Old Newspaper Font.ttf / Profile-Medium.otf / Profile-Regular.otf / Sansation_Regular.ttf / Trade Gothic LT Extended.ttf / VTKS ANIMAL 2.ttf / wildwordsbolditalic.TTF / wildwordsitalic.TTF / wildwordsroman.TTF / Adobe Garamond Bold Oldstyle Figures.ttf / Adobe Garamond LT Regular.ttf / arial.ttf / BirchSt0.otf / BirchStd.otf / Brianne_s_hand.ttf / Century Holic.ttf / DFKAPW5W.TTF / fansubBlock.ttf / Happy Hell.ttf / Humana Sans ITC TT Bold.ttf / Humana Sans ITC TT BoldItalic.ttf

Video
ID                                       : 1
Format                                   : AVC
Format/Info                              : Advanced Video Codec
Format profile                           : High@L5.1
Format settings, CABAC                   : Yes
Format settings, ReFrames                : 9 frames
Codec ID                                 : V_MPEG4/ISO/AVC
Duration                                 : 23mn 39s
Bit rate                                 : 1 000 Kbps
Width                                    : 848 pixels
Height                                   : 480 pixels
Display aspect ratio                     : 16:9
Frame rate mode                          : Constant
Frame rate                               : 23.976 fps
Color space                              : YUV
Chroma subsampling                       : 4:2:0
Bit depth                                : 8 bits
Scan type                                : Progressive
Bits/(Pixel*Frame)                       : 0.102
Stream size                              : 169 MiB (87%)
Title                                    : Maria+Holic 02
Writing library                          : x264 core 65 r1074M b6bb3d4
Encoding settings                        : cabac=1 / ref=9 / deblock=1:1:0 / analyse=0x3:0x113 / me=umh / subme=9 / psy_rd=1.0:0.0 / mixed_ref=1 / me_range=24 / chroma_me=1 / trellis=2 / 8x8dct=1 / cqm=0 / deadzone=21,11 / chroma_qp_offset=-2 / threads=6 / nr=0 / decimate=1 / mbaff=0 / bframes=6 / b_pyramid=1 / b_adapt=2 / b_bias=0 / direct=3 / wpredb=1 / keyint=250 / keyint_min=25 / scenecut=40(pre) / rc=2pass / bitrate=1000 / ratetol=3.0 / qcomp=0.60 / qpmin=10 / qpmax=51 / qpstep=4 / cplxblur=20.0 / qblur=0.5 / ip_ratio=1.40 / pb_ratio=1.30 / aq=1:1.00
Default                                  : Yes
Forced                                   : No

Audio
ID                                       : 2
Format                                   : Vorbis
Format settings, Floor                   : 1
Codec ID                                 : A_VORBIS
Duration                                 : 23mn 39s
Bit rate mode                            : Variable
Bit rate                                 : 128 Kbps
Channel(s)                               : 2 channels
Sampling rate                            : 48.0 KHz
Compression mode                         : Lossy
Stream size                              : 21.7 MiB (11%)
Title                                    : 2.0 Vorbis
Writing library                          : aoTuV b5c  (UTC 2008-12-15)
Language                                 : Japanese
Default                                  : Yes
Forced                                   : No

Text
ID                                       : 3
Format                                   : ASS
Codec ID                                 : S_TEXT/ASS
Codec ID/Info                            : Advanced Sub Station Alpha
Compression mode                         : Lossless
Title                                    : ASS
Language                                 : English
Default                                  : Yes
Forced                                   : No

Menu
00:00:00.000                             : :Introduction - Good Morning Nose Bleed.
00:04:50.957                             : :OP - I Taught Her Those Moves!
00:06:20.880                             : :Maria+Holic 02: Sweet Pain
00:08:27.798                             : :Random Fanservice
00:13:22.134                             : :You are now watching manga.
00:22:45.446                             : :I think this is where the ED is supposed to be...
00:23:19.855                             : :Omake
00:23:34.828                             : :Watch the next episode!

Other Files in this Torrent
[gg]_Maria+Holic_-_02_[178FD4ED].mkv
beta
Anime DDL+NZB mirror
Current Time: 27/01/2022 23:20



About/FAQs

Discord