[gg]_Maria+Holic_-_03_[C5691B25].mkv


File Size194.5 MB (203,915,852 bytes)
DownloadAnonFiles | Go4Up | Jheberg | MultiUp | Sendspace | ShareBeast | SolidFiles | UsersFiles
HashesCRC32: C5691B25, MD5: 42794A497A88B12472379876D63BFB30, SHA1: 8D4379D5F288E594D293D9B5DC2C4DD34E3C832B, SHA256: 77573B7AF928D77626831B3D79E34A1635C5442E12E51B5B04899B442387BB34, ED2K: 7C7318061E8FED00335CCDA5B4FACFB6
Screenshots
screenshotscreenshotscreenshotscreenshotscreenshot
SubtitlesAll Attachments | ASS [eng, ASS]
Additional Info
General
Unique ID                                : 100133433717539943016451300900683161623 (0x4B54FF72A518AF6ADF5B5970B8A8A017)
Complete name                            : [gg]_Maria+Holic_-_03_[C5691B25].mkv
Format                                   : Matroska
Format version                           : Version 1
File size                                : 194 MiB
Duration                                 : 23mn 39s
Overall bit rate mode                    : Variable
Overall bit rate                         : 1 149 Kbps
Movie name                               : Maria + Holic 03 - Budding Masochism
Encoded date                             : UTC 2009-01-22 20:35:14
Writing application                      : mkvmerge v2.1.0 ('Another Place To Fall') built on Jul 17 2008 21:34:25
Writing library                          : libebml v0.7.7 + libmatroska v0.8.1
Attachements                             : ClearfaceGothicLH-Medium.otf / dblftr16.ttf / DFKAPW5W.TTF / edo.ttf / fansubBlock.ttf / GaramondPremrPro-Smbd.otf / Humana Sans ITC TT Bold.ttf / Humana Sans ITC TT BoldItalic.ttf / Humana Sans ITC TT Light.ttf / Humana Sans ITC TT LightItalic.ttf / Humana Sans Md ITC TT Medium.ttf / Humana Sans Md ITC TT MediumIta.ttf / Humana Script Md ITC TT Medium.ttf / huxtable.ttf / JacobyICG-Black.otf / JacobyICG-Light.otf / JanieHmk.ttf / JANIHB_.TTF / laurencb.ttf / mariaholiced.ttf / Profile-Medium.otf / Profile-Regular.otf / Shokkked.otf / VTKS ANIMAL 2.ttf / BirchStd.otf / Century Holic.ttf

Video
ID                                       : 1
Format                                   : AVC
Format/Info                              : Advanced Video Codec
Format profile                           : High@L5.1
Format settings, CABAC                   : Yes
Format settings, ReFrames                : 9 frames
Codec ID                                 : V_MPEG4/ISO/AVC
Duration                                 : 23mn 39s
Bit rate                                 : 1 000 Kbps
Width                                    : 848 pixels
Height                                   : 480 pixels
Display aspect ratio                     : 16:9
Frame rate mode                          : Constant
Frame rate                               : 23.976 fps
Color space                              : YUV
Chroma subsampling                       : 4:2:0
Bit depth                                : 8 bits
Scan type                                : Progressive
Bits/(Pixel*Frame)                       : 0.102
Stream size                              : 169 MiB (87%)
Title                                    : Maria+Holic 03
Writing library                          : x264 core 65 r1077M e46f648
Encoding settings                        : cabac=1 / ref=9 / deblock=1:1:0 / analyse=0x3:0x113 / me=umh / subme=9 / psy_rd=1.0:0.0 / mixed_ref=1 / me_range=24 / chroma_me=1 / trellis=2 / 8x8dct=1 / cqm=0 / deadzone=21,11 / chroma_qp_offset=-2 / threads=6 / nr=0 / decimate=1 / mbaff=0 / bframes=6 / b_pyramid=1 / b_adapt=2 / b_bias=0 / direct=3 / wpredb=1 / keyint=250 / keyint_min=25 / scenecut=40(pre) / rc=2pass / bitrate=1000 / ratetol=3.0 / qcomp=0.60 / qpmin=10 / qpmax=51 / qpstep=4 / cplxblur=20.0 / qblur=0.5 / ip_ratio=1.40 / pb_ratio=1.30 / aq=1:1.00
Default                                  : Yes
Forced                                   : No

Audio
ID                                       : 2
Format                                   : Vorbis
Format settings, Floor                   : 1
Codec ID                                 : A_VORBIS
Duration                                 : 23mn 39s
Bit rate mode                            : Variable
Bit rate                                 : 128 Kbps
Channel(s)                               : 2 channels
Sampling rate                            : 48.0 KHz
Compression mode                         : Lossy
Stream size                              : 21.7 MiB (11%)
Title                                    : 2.0 Vorbis
Writing library                          : aoTuV b5c  (UTC 2008-12-15)
Language                                 : Japanese
Default                                  : Yes
Forced                                   : No

Text
ID                                       : 3
Format                                   : ASS
Codec ID                                 : S_TEXT/ASS
Codec ID/Info                            : Advanced Sub Station Alpha
Compression mode                         : Lossless
Title                                    : ASS
Language                                 : English
Default                                  : Yes
Forced                                   : No

Menu
00:00:00.000                             : :Introduction - Good Morning Nose Bleed.
00:01:59.953                             : :OP - Guitar Maid~
00:03:29.834                             : :Maria+Holic 03: Budding Masochism
00:14:42.245                             : :Random Fanservice
00:21:49.838                             : :ED - Maria+Holic for the NES.
00:23:19.886                             : :Omake
00:23:34.859                             : :Watch the next episode!

Other Files in this Torrent
[gg]_Maria+Holic_-_03_[C5691B25].mkv
beta
Anime DDL+NZB mirror
Current Time: 08/08/2022 10:43



About/FAQs

Discord