[gg]_Maria+Holic_-_01v2_[4703AA5E].mkv


File Size245.3 MB (257,231,677 bytes)
DownloadAnonFiles | Go4Up | Jheberg | MultiUp
  • BayFiles
  • BillionUploads
  • DepositFiles
  • Fichier
  • Free
  • HugeFiles
  • Ryushare
  • Turbobit
  • UpToBox
  • UploadHero
  • Uploaded
| Sendspace | SolidFiles | UsersFiles
ShareBeast: Part1, Part2
HashesCRC32: 4703AA5E, MD5: 4EB1EDDCDF6ED9B2DAFD82BE958C5447, SHA1: 43739BE0F6377567CD6A403C67B03F1426AA24DD, SHA256: 57C3A219D49FC11B58DEC9FE89FF313F16A6120997DC674B9F64DAB913D6F9D0, ED2K: EED1ED5225418DC71E1CAB14DF43431A
Screenshots
screenshotscreenshotscreenshotscreenshotscreenshot
SubtitlesAll Attachments | ASS [eng, ASS]
Additional Info
General
Unique ID                                : 254959310013402940472687941546176464925 (0xBFCF60817797ED49BBAF43392BF4C81D)
Complete name                            : [gg]_Maria+Holic_-_01v2_[4703AA5E].mkv
Format                                   : Matroska
Format version                           : Version 1
File size                                : 245 MiB
Duration                                 : 23mn 49s
Overall bit rate mode                    : Variable
Overall bit rate                         : 1 439 Kbps
Movie name                               : Maria + Holic - 01c A Prank Kiss
Encoded date                             : UTC 2009-01-13 03:14:04
Writing application                      : mkvmerge v2.4.1 ('Use Me') built on Dec  5 2008 18:30:05
Writing library                          : libebml v0.7.7 + libmatroska v0.8.1
Attachements                             : ARIAL.TTF / ARIALI.TTF / ARIALBD.TTF / ARIALBI.TTF / ARIBLK.TTF / Humana Serif Md ITC TT Medium.ttf / huxtable.ttf / JacobyICG-Black.otf / JacobyICG-Light.otf / JANIHB_.TTF / Jellyka_Estrya_Handwriting.ttf / Profile-Black.otf / Profile-Medium.otf / Profile-Regular.otf / ROCK.TTF / ShakeAndBake.ttf / SUBTLE.TTF / Trade Gothic LT Bold No. 2.ttf / Trade Gothic LT Bold.ttf / Trade Gothic LT.ttf / Trondheim.ttf / YIKES__.TTF / ABSCI__.TTF / AidaBold.ttf / BirchStd.otf / carolingia.ttf / Complete in Him.ttf / Futura LT Bold.ttf / GaramondPremrPro-Smbd.otf / Humana Sans ITC TT Bold.ttf / Humana Sans ITC TT BoldItalic.ttf / Humana Sans ITC TT Light.ttf / Humana Sans ITC TT LightItalic.ttf / Humana Sans Md ITC TT Medium.ttf / Humana Sans Md ITC TT MediumIta.ttf / Humana Serif Md ITC TT MedIta.ttf / DFKAPW5W.TTF / mariaholiced.ttf / Humana_Sans_Md_ITC_TT_Medium.ttf / Humana_Sans_Md_ITC_TT_MediumIta.ttf / Humana_Serif_Md_ITC_TT_MedIta.ttf / Humana_Sans_ITC_TT_LightItalic.ttf

Video
ID                                       : 1
Format                                   : AVC
Format/Info                              : Advanced Video Codec
Format profile                           : High@L5.1
Format settings, CABAC                   : Yes
Format settings, ReFrames                : 16 frames
Codec ID                                 : V_MPEG4/ISO/AVC
Duration                                 : 23mn 49s
Bit rate                                 : 1 300 Kbps
Width                                    : 848 pixels
Height                                   : 480 pixels
Display aspect ratio                     : 16:9
Frame rate mode                          : Constant
Frame rate                               : 23.976 fps
Color space                              : YUV
Chroma subsampling                       : 4:2:0
Bit depth                                : 8 bits
Scan type                                : Progressive
Bits/(Pixel*Frame)                       : 0.133
Stream size                              : 221 MiB (90%)
Title                                    : Maria+Holic 01
Writing library                          : x264 core 65 r1069M ed32ad2
Encoding settings                        : cabac=1 / ref=16 / deblock=1:1:0 / analyse=0x3:0x113 / me=umh / subme=9 / psy_rd=1.0:0.0 / mixed_ref=1 / me_range=24 / chroma_me=1 / trellis=2 / 8x8dct=1 / cqm=0 / deadzone=21,11 / chroma_qp_offset=-2 / threads=6 / nr=0 / decimate=1 / mbaff=0 / bframes=6 / b_pyramid=1 / b_adapt=2 / b_bias=0 / direct=3 / wpredb=1 / keyint=250 / keyint_min=25 / scenecut=40(pre) / rc=2pass / bitrate=1300 / ratetol=3.0 / qcomp=0.60 / qpmin=10 / qpmax=51 / qpstep=4 / cplxblur=20.0 / qblur=0.5 / ip_ratio=1.40 / pb_ratio=1.30 / aq=1:1.00
Default                                  : Yes
Forced                                   : No

Audio
ID                                       : 2
Format                                   : Vorbis
Format settings, Floor                   : 1
Codec ID                                 : A_VORBIS
Duration                                 : 23mn 49s
Bit rate mode                            : Variable
Bit rate                                 : 112 Kbps
Channel(s)                               : 2 channels
Sampling rate                            : 48.0 KHz
Compression mode                         : Lossy
Stream size                              : 19.1 MiB (8%)
Title                                    : 2.0 Vorbis
Writing library                          : aoTuV b5c  (UTC 2008-12-15)
Language                                 : English
Default                                  : Yes
Forced                                   : No

Text
ID                                       : 3
Format                                   : ASS
Codec ID                                 : S_TEXT/ASS
Codec ID/Info                            : Advanced Sub Station Alpha
Compression mode                         : Lossless
Title                                    : ASS
Language                                 : English
Default                                  : Yes
Forced                                   : No

Menu #1
00:00:00.000                             : en:WTF is this show about?
00:01:33.885                             : en:Title Screen
00:13:16.837                             : en:Random Fanservice
00:20:04.829                             : en:Who needs more than 8 bits?
00:21:34.834                             : en:Matsurika's Diary
00:23:19.855                             : en:Omake or h-game add?

Menu #2
00:00:00.000                             : :WTF is this show about?
00:01:33.885                             : :Title Screen
00:13:16.837                             : :Random Fanservice
00:20:17.049                             : :Who needs more than 8 bits?
00:21:34.834                             : :Matsurika's Diary
00:23:19.855                             : :Omake or h-game add?

Other Files in this Torrent
[gg]_Maria+Holic_-_01v2_[4703AA5E].mkv
beta
Anime DDL+NZB mirror
Current Time: 27/01/2022 23:44



About/FAQs

Discord