[gg]_Maria+Holic_-_04_[783BEBC3].mkv


File Size194.0 MB (203,382,214 bytes)
DownloadAnonFiles | Go4Up | Jheberg | MultiUp | Sendspace | ShareBeast | SolidFiles | UsersFiles
HashesCRC32: 783BEBC3, MD5: C478748E47157436E6EC3901EBCBE826, SHA1: D273A4CFBC1CA4A2463FA8F244F60A20E7ED01BB, SHA256: 92D1631973EEA38602C00D9F5A06A4439E71093DAACE434880CCCD354C472A71, ED2K: 90D4C959B696783233EE316725E7BEE5
Screenshots
screenshotscreenshotscreenshotscreenshotscreenshot
SubtitlesAll Attachments | ASS [eng, ASS]
Additional Info
General
Unique ID                                : 110350516802709376580132689199116899946 (0x5304BC8939B850AAC8A43B689174D66A)
Complete name                            : [gg]_Maria+Holic_-_04_[783BEBC3].mkv
Format                                   : Matroska
Format version                           : Version 1
File size                                : 194 MiB
Duration                                 : 23mn 48s
Overall bit rate mode                    : Variable
Overall bit rate                         : 1 139 Kbps
Movie name                               : Maria + Holic 04 - The Price of Pleasure
Encoded date                             : UTC 2009-01-30 22:06:29
Writing application                      : mkvmerge v2.1.0 ('Another Place To Fall') built on Jul 17 2008 21:34:25
Writing library                          : libebml v0.7.7 + libmatroska v0.8.1
Attachements                             : BirchStd.otf / Century Holic.ttf / Complete in Him.ttf / DFKAPW5W.TTF / Humana Sans ITC TT Bold.ttf / Humana Sans ITC TT BoldItalic.ttf / Humana Sans ITC TT Light.ttf / Humana Sans ITC TT LightItalic.ttf / Humana Sans Md ITC TT Medium.ttf / Humana Sans Md ITC TT MediumIta.ttf / Humana Serif Md ITC TT MedIta.ttf / Humana Serif Md ITC TT Medium.ttf / huxtable.ttf / JacobyICG-Black.otf / JacobyICG-Light.otf / JANIHB_.TTF / LEVIBRUSH.TTF / mariaholiced.ttf / Profile-Medium.otf / Profile-Regular.otf / Tiffany-Demi.otf / Adobe Garamond LT Bold.ttf / Adobe Garamond LT Semibold.ttf / arial.ttf

Video
ID                                       : 1
Format                                   : AVC
Format/Info                              : Advanced Video Codec
Format profile                           : High@L5.1
Format settings, CABAC                   : Yes
Format settings, ReFrames                : 9 frames
Codec ID                                 : V_MPEG4/ISO/AVC
Duration                                 : 23mn 48s
Bit rate                                 : 1 000 Kbps
Width                                    : 848 pixels
Height                                   : 480 pixels
Display aspect ratio                     : 16:9
Frame rate mode                          : Constant
Frame rate                               : 23.976 fps
Color space                              : YUV
Chroma subsampling                       : 4:2:0
Bit depth                                : 8 bits
Scan type                                : Progressive
Bits/(Pixel*Frame)                       : 0.102
Stream size                              : 168 MiB (87%)
Title                                    : Maria+Holic 04
Writing library                          : x264 core 66 r1088M 71ac0a3
Encoding settings                        : cabac=1 / ref=9 / deblock=1:1:0 / analyse=0x3:0x113 / me=umh / subme=9 / psy_rd=1.0:0.0 / mixed_ref=1 / me_range=24 / chroma_me=1 / trellis=2 / 8x8dct=1 / cqm=0 / deadzone=21,11 / chroma_qp_offset=-2 / threads=6 / nr=0 / decimate=1 / mbaff=0 / bframes=6 / b_pyramid=1 / b_adapt=2 / b_bias=0 / direct=3 / wpredb=1 / keyint=250 / keyint_min=25 / scenecut=40(pre) / rc=2pass / bitrate=1000 / ratetol=3.0 / qcomp=0.60 / qpmin=10 / qpmax=51 / qpstep=4 / cplxblur=20.0 / qblur=0.5 / ip_ratio=1.40 / pb_ratio=1.30 / aq=1:1.00
Language                                 : English
Default                                  : Yes
Forced                                   : No

Audio
ID                                       : 2
Format                                   : Vorbis
Format settings, Floor                   : 1
Codec ID                                 : A_VORBIS
Duration                                 : 23mn 48s
Bit rate mode                            : Variable
Bit rate                                 : 128 Kbps
Channel(s)                               : 2 channels
Sampling rate                            : 48.0 KHz
Compression mode                         : Lossy
Stream size                              : 21.8 MiB (11%)
Title                                    : 2.0 Vorbis
Writing library                          : aoTuV b5c  (UTC 2008-12-15)
Language                                 : Japanese
Default                                  : Yes
Forced                                   : No

Text
ID                                       : 3
Format                                   : ASS
Codec ID                                 : S_TEXT/ASS
Codec ID/Info                            : Advanced Sub Station Alpha
Compression mode                         : Lossless
Title                                    : ASS
Language                                 : English
Default                                  : Yes
Forced                                   : No

Menu
00:00:00.000                             : :Introduction - Monster Attacks
00:01:52.028                             : :OP - Guitar Maid~
00:03:22.035                             : :Maria+Holic 04: The Price of Pleasure
00:11:38.071                             : :Random Fanservice
00:19:11.023                             : :ED - Maria+Holic for the NES.
00:20:41.072                             : :Matsurika's Dairy
00:23:19.063                             : :Omake
00:23:34.078                             : :Watch the Next Episode!

Other Files in this Torrent
[gg]_Maria+Holic_-_04_[783BEBC3].mkv
beta
Anime DDL+NZB mirror
Current Time: 20/05/2022 05:04



About/FAQs

Discord